<?xml version="1.0" standalone="no"?>
<!DOCTYPE svg PUBLIC "-//W3C//DTD SVG 1.1//EN" "http://www.w3.org/Graphics/SVG/1.1/DTD/svg11.dtd" >
<svg>
<metadata>
Created by FontForge 20090914 at Thu Jul 14 20:33:51 2016
 By www-data
Copyright (c) 2012 by Dhanbisishthabongs Kliauklom. All rights reserved.
</metadata>
<defs>
<font id="ThaiSansNeue-Bold" horiz-adv-x="0" >
  <font-face 
    font-family="ThaiSans Neue"
    font-weight="700"
    font-stretch="normal"
    units-per-em="1000"
    panose-1="0 0 0 0 0 0 0 0 0 0"
    ascent="758"
    descent="-242"
    x-height="382"
    cap-height="512"
    bbox="-401.002 -339.001 1007 899.998"
    underline-thickness="50"
    underline-position="-49"
    unicode-range="U+0020-U+2122"
  />
<missing-glyph horiz-adv-x="344" 
d="M37 0v350h270v-350h-270z" />
    <glyph glyph-name="arm" unicode="&#x3b;&#x3b;arm&#x3b;&#x3b;" horiz-adv-x="1044" 
d="M953 312l-13 -22h20zM941 351l-37 -61h20l24 41zM730 850h-36l13 -39zM875 290h13l47 79l-7 24l-56 -93zM877 553l-57 -94l6 -16l56 91zM859 340l7 -23l56 94l-7 22zM834 683l-55 -93l6 -20l56 92zM889 513l-56 -93l6 -16l56 92zM806 773l-56 -93l6 -20l56 93zM774 850
h-25l-35 -57l8 -28zM863 597l-57 -93l7 -20l55 93zM764 636l6 -20l56 93l-6 20zM117 0c0 -7.33301 2.5 -14 7.5 -20s12.5 -9 22.5 -9c20 0 30 9.66699 30 29c0 20 -10 30 -30 30c-10 0 -17.5 -3 -22.5 -9s-7.5 -13 -7.5 -21zM686 120h30l-30 -100h-20zM716 20l20 100h30
l-30 -100h-20zM848 643l-56 -93l7 -24l56 93zM903 473l-57 -93l6 -19l57 91zM729 746l11 -36l56 94l-11 34zM177 820c0 -10 2.83301 -19.167 8.5 -27.5s16.167 -12.5 31.5 -12.5s25.833 4.16699 31.5 12.5s8.5 17.5 8.5 27.5c0 15.333 -4.16699 25.833 -12.5 31.5
s-17.5 8.5 -27.5 8.5s-19.167 -2.83301 -27.5 -8.5s-12.5 -16.167 -12.5 -31.5zM957 -19c-1.33301 12.667 -3.99902 24 -7.99902 34c-4 8.66699 -9.83301 16.667 -17.5 24s-19.167 11 -34.5 11c-17.333 0 -31.333 -6.83301 -42 -20.5s-18.667 -28.5 -24 -44.5
c-6.66699 -18.667 -11.334 -40 -14.001 -64zM817.001 -129c0 -7.33301 1.16699 -15.168 3.5 -23.501s6 -16 11 -23s11.333 -12.667 19 -17s16.5 -6.5 26.5 -6.5c20 0 35.333 6.66699 46 20s18.667 28.333 24 45c6 18.667 9.33301 40.334 10 65.001zM660.001 839.998
l-123 -340h232zM777.001 -99.002c0 24.667 2.99902 48.5 8.99902 71.5s14.333 43.167 25 60.5s23.334 31.333 38.001 42s30.667 16 48 16c35.333 0 62.5 -12.167 81.5 -36.5s28.5 -58.833 28.5 -103.5c0 -65.333 -11.667 -113.333 -35 -144s-55 -46 -95 -46
c-12.667 0 -25 2.66699 -37 8s-22.667 13.5 -32 24.5s-16.833 25.333 -22.5 43s-8.5 39.167 -8.5 64.5zM37 619.998l-0.000976562 40h160v80c-7.33301 0 -14.666 2.16699 -21.999 6.5s-13.833 10.166 -19.5 17.499s-10.167 15.833 -13.5 25.5s-5 19.834 -5 30.501
c0 12 2.33301 22.833 7 32.5s10.667 18 18 25s15.833 12.5 25.5 16.5s19.5 6 29.5 6c25.333 0 45 -7 59 -21s21 -33.667 21 -59c0 -8.66699 -1.33301 -17.667 -4 -27s-6.5 -17.833 -11.5 -25.5s-11.167 -14 -18.5 -19s-16 -7.83301 -26 -8.5v-80h160v-40h-160v-120l107 -240
h-40l-87 200l-87 -200h-40l107 240v120h-160zM180.999 -239.002l-32.001 160.002l18 12c-1.33301 -0.666992 -3.33301 -1 -6 -1c-2.66699 -0.666992 -7.33398 -1 -14.001 -1c-6 0 -13.167 1.16699 -21.5 3.5s-16 6.16602 -23 11.499s-13 12.333 -18 21s-7.5 19.667 -7.5 33
c0 7.33301 1.33301 15.166 4 23.499s6.83398 16 12.501 23s12.834 12.667 21.501 17s19.334 6.5 32.001 6.5c20 0 36.667 -6.66699 50 -20s20 -30 20 -50c0 -4.66699 -1.16699 -13 -3.5 -25s-10.166 -22.667 -23.499 -32l22 -102l55 110h20l55 -110l35 209h50l-16 -84l11 20
l65 15c0 34.667 2 64.167 6 88.5s10 43.833 18 58.5s18.333 25.334 31 32.001s27.667 10 45 10c20 0 35 -6.66699 45 -20s15 -30 15 -50h-20c0 10 -2.5 19.167 -7.5 27.5s-12.5 12.5 -22.5 12.5c-25.333 0 -43.333 -12.333 -54 -37s-16 -62 -16 -112l73 18l9 -37l-82 -21
v-40c0 -40 -1 -76.5 -3 -109.5s-6.83301 -61.5 -14.5 -85.5s-18.834 -42.5 -33.501 -55.5s-34.334 -19.5 -59.001 -19.5c-20 0 -36.667 5 -50 15s-20 25 -20 45h20c0 -10 4.16699 -17.5 12.5 -22.5s17.5 -7.5 27.5 -7.5c20 0 35.333 6 46 18s18.5 28.5 23.5 49.5
s8 46.167 9 75.5s1.5 61.666 1.5 96.999v30l-80 -20l-34 -180h-26l-70 150l-70 -150h-26zM446.998 260h-40l228 620h172l200 -620h-160l-61 190h-269z" />
    <glyph glyph-name=".notdef" horiz-adv-x="344" 
d="M37 0v350h270v-350h-270z" />
    <glyph glyph-name="space" unicode=" " horiz-adv-x="322" 
 />
    <glyph glyph-name="space" unicode="&#xa0;" horiz-adv-x="322" 
 />
    <glyph glyph-name="exclam" unicode="!" horiz-adv-x="161" 
d="M37 0v86h87v-86h-87zM37 138v404h87v-404h-87z" />
    <glyph glyph-name="quotedbl" unicode="&#x22;" horiz-adv-x="291" 
d="M169 542h85v-182h-85v182zM37 542h85v-182h-85v182z" />
    <glyph glyph-name="numbersign" unicode="#" horiz-adv-x="582" 
d="M241 298l-21 -77h111l21 77h-111zM78 298l19 75h78l37 139h87l-38 -139h111l38 139h87l-38 -139h86l-21 -75h-85l-21 -77h86l-22 -76h-85l-39 -145h-86l39 145h-111l-40 -145h-86l39 145h-76l20 76h76l21 77h-76z" />
    <glyph glyph-name="dollar" unicode="$" horiz-adv-x="421" 
d="M364 414c-12.667 6 -26.6689 11.332 -42.002 15.999c-13.333 4 -29.166 7.66699 -47.499 11s-39.166 5 -62.499 5c-9.33301 0 -19 -1.33301 -29 -4s-19.5 -6.5 -28.5 -11.5s-16.333 -10.833 -22 -17.5s-8.5 -14 -8.5 -22c0 -16 6.5 -28.667 19.5 -38
s29 -17.666 48 -24.999s39.833 -14.833 62.5 -22.5s43.5 -17.834 62.5 -30.501s35 -28.667 48 -48s19.5 -44.666 19.5 -75.999c0 -17.333 -2 -34.333 -6 -51s-11 -32 -21 -46s-23.167 -26.167 -39.5 -36.5s-36.5 -17.5 -60.5 -21.5v-79h-84v74
c-21.333 0.666992 -40.166 3.33398 -56.499 8.00098s-30.5 9.66699 -42.5 15c-14 6.66699 -26.333 14 -37 22v72c16 -8 32.667 -15 50 -21c15.333 -5.33301 32.166 -10.166 50.499 -14.499s37.166 -6.5 56.499 -6.5c36.667 0 63 8.33301 79 25s24 36.667 24 60
c0 20 -6.5 35.667 -19.5 47s-29 21 -48 29s-39.833 15.333 -62.5 22s-43.5 15.667 -62.5 27s-35 25.833 -48 43.5s-19.5 41.5 -19.5 71.5c0 17.333 3.5 33.166 10.5 47.499s16.667 27 29 38s26.833 20 43.5 27s34.334 12.167 53.001 15.5v77h85v-76
c17.333 -2 32.5 -4.83301 45.5 -8.5s24.167 -7.5 33.5 -11.5c10.667 -4.66699 19.667 -9.33398 27 -14.001v-72z" />
    <glyph glyph-name="percent" unicode="%" horiz-adv-x="600" 
d="M452 -13c-32.667 0 -58.667 13.168 -78 39.501s-29 61.5 -29 105.5c0 47.333 9.83301 85.666 29.5 114.999s47.167 44 82.5 44c32 0 57.667 -13.833 77 -41.5s29 -64.5 29 -110.5s-10.5 -82.833 -31.5 -110.5s-47.5 -41.5 -79.5 -41.5zM480 135.001
c0 53.333 -8.66699 80 -26 80c-7.33301 0 -13.166 -6 -17.499 -18s-6.5 -32.667 -6.5 -62c0 -26.667 2.16699 -45.667 6.5 -57s10.166 -17 17.499 -17s13.5 5.5 18.5 16.5s7.5 30.167 7.5 57.5zM143 279.001c-33.333 0 -59.332 13.835 -77.999 41.502s-28 63.5 -28 107.5
c0 47.333 10 85.166 30 113.499s47 42.5 81 42.5c32.667 0 58.667 -13.333 78 -40s29 -63 29 -109c0 -23.333 -2.66699 -44.5 -8 -63.5s-13 -35.333 -23 -49s-21.833 -24.334 -35.5 -32.001s-28.834 -11.5 -45.501 -11.5zM172.001 431.003c0 31.333 -2.49805 52 -7.49805 62
s-10.833 15 -17.5 15c-8 0 -14.167 -5 -18.5 -15s-6.5 -31 -6.5 -63c0 -16.667 0.666992 -30 2 -40s3.16602 -17.5 5.49902 -22.5s5 -8.33301 8 -10s6.16699 -2.5 9.5 -2.5s6.5 0.833008 9.5 2.5s5.66699 5.16699 8 10.5s4.16602 13 5.49902 23s2 23.333 2 40z
M189.003 0.00292969h-94l351 624h95z" />
    <glyph glyph-name="ampersand" unicode="&#x26;" horiz-adv-x="581" 
d="M287 404c0 12.667 -5.66602 22.333 -16.999 29s-23 10 -35 10c-21.333 0 -36.833 -4.83301 -46.5 -14.5s-14.5 -19.5 -14.5 -29.5c0 -17.333 4.16699 -31.833 12.5 -43.5s18.166 -21.167 29.499 -28.5c25.333 10.667 43.5 22.667 54.5 36s16.5 27 16.5 41z
M214.001 65.999c29.333 0 53.0029 3.99805 71.0029 11.998s36.667 19.667 56 35l-28 39.5c-8.66699 12.333 -18 24 -28 35s-21.333 21.167 -34 30.5s-28 18 -46 26c-10.667 -5.33301 -20.834 -10.666 -30.501 -15.999s-18.334 -12 -26.001 -20s-13.667 -17.5 -18 -28.5
s-6.5 -24.833 -6.5 -41.5c0 -15.333 2.66699 -27.666 8 -36.999s12.166 -16.5 20.499 -21.5s17.833 -8.5 28.5 -10.5s21.667 -3 33 -3zM544.004 -0.00292969c-69.333 0 -119.999 18.002 -151.999 54.002c-25.333 -21.333 -52.166 -37.166 -80.499 -47.499
s-60.833 -15.5 -97.5 -15.5c-26 0 -49.833 2.83301 -71.5 8.5s-40.334 14.5 -56.001 26.5s-27.834 27.167 -36.501 45.5s-13 40.5 -13 66.5c0 36.667 9.5 67.167 28.5 91.5s46.833 44.833 83.5 61.5c-15.333 10 -29.5 24.167 -42.5 42.5s-19.5 40.166 -19.5 65.499
c0 18 3.66699 34.5 11 49.5s17.666 28 30.999 39s29 19.5 47 25.5s37.667 9 59 9c19.333 0 37.5 -3 54.5 -9s31.667 -14.167 44 -24.5s22.166 -22.333 29.499 -36s11 -28.167 11 -43.5c0 -30.667 -8 -54.667 -24 -72s-38.667 -34 -68 -50
c16 -10.667 29.5 -20.167 40.5 -28.5s20.5 -16.5 28.5 -24.5s15.333 -16.167 22 -24.5l22 -28.5c18 32 30.5 61.167 37.5 87.5s11.167 52.166 12.5 77.499l1 27h89c-1.33301 -19.333 -4.16602 -40.166 -8.49902 -62.499s-10.166 -45 -17.499 -68s-16.333 -45.333 -27 -67
s-22.667 -41.834 -36 -60.501c10 -12.667 22.5 -22.334 37.5 -29.001s35.167 -10 60.5 -10v-76z" />
    <glyph glyph-name="quotesingle" unicode="'" horiz-adv-x="161" 
d="M37 542h87v-182h-87v182z" />
    <glyph glyph-name="parenleft" unicode="(" horiz-adv-x="247" 
d="M149 -140c-42 50 -73.666 102.001 -94.999 156.001s-32 114.667 -32 182c0 68.667 11.333 132.167 34 190.5s53.667 110.833 93 157.5h90c-39.333 -48 -71.5 -102 -96.5 -162s-37.5 -122 -37.5 -186c0 -67.333 12.667 -128.833 38 -184.5
s57.666 -106.834 96.999 -153.501h-91z" />
    <glyph glyph-name="parenright" unicode=")" horiz-adv-x="247" 
d="M7 -140c39.333 46.667 71.5 98.168 96.5 154.501s37.5 117.166 37.5 182.499c0 67.333 -12.5 130.333 -37.5 189s-57.167 112 -96.5 160h90c39.333 -46.667 70.5 -99.167 93.5 -157.5s34.5 -121.833 34.5 -190.5c0 -69.333 -11.5 -132 -34.5 -188
s-54.167 -106 -93.5 -150h-90z" />
    <glyph glyph-name="asterisk" unicode="*" horiz-adv-x="289" 
d="M37 396l81 42l-81 42l33 45l57 -54l-11 79h56l-12 -80l59 55l33 -45l-82 -42l82 -42l-33 -45l-59 55l12 -80h-56l11 79l-57 -54z" />
    <glyph glyph-name="plus" unicode="+" horiz-adv-x="401" 
d="M162 384h77v-130h125v-76h-125v-118h-77v118h-125v76h125v130z" />
    <glyph glyph-name="comma" unicode="," horiz-adv-x="162" 
d="M37 82l88.001 -0.00195312v-71c0 -20 -4.16699 -37.5 -12.5 -52.5s-17.5 -27.5 -27.5 -37.5c-12 -12 -25.333 -22 -40 -30h-86c14 9.33301 27 20 39 32c9.33301 10.667 18.166 23.334 26.499 38.001s12.5 31.334 12.5 50.001v71z" />
    <glyph glyph-name="hyphen" unicode="-" horiz-adv-x="296" 
d="M37 190v72h222v-72h-222z" />
    <glyph glyph-name="period" unicode="." horiz-adv-x="161" 
d="M37 0v82h87v-82h-87z" />
    <glyph glyph-name="slash" unicode="/" horiz-adv-x="266" 
d="M91 0h-84l168 624h84z" />
    <glyph glyph-name="zero" unicode="0" horiz-adv-x="441" 
d="M419 257c0 -42 -5.33008 -79.501 -15.9971 -112.501s-25.334 -60.833 -44.001 -83.5s-40.667 -40 -66 -52s-52.666 -18 -81.999 -18c-56.667 0 -102.334 22 -137.001 66s-52 107 -52 189c0 43.333 4.83301 82.166 14.5 116.499s23.167 63.333 40.5 87
s38.166 41.834 62.499 54.501s51.166 19 80.499 19c28 0 54.167 -5.83301 78.5 -17.5s45.5 -28.667 63.5 -51s32 -50.166 42 -83.499s15 -71.333 15 -114zM331.003 251.999c0 35.333 -3.33105 65.1641 -9.99805 89.4971s-15.334 44.166 -26.001 59.499
s-22.834 26.5 -36.501 33.5s-27.834 10.5 -42.501 10.5c-13.333 0 -26.5 -3.5 -39.5 -10.5s-24.5 -18.167 -34.5 -33.5s-18 -35.5 -24 -60.5s-9 -55.5 -9 -91.5c0 -34 3 -62.667 9 -86s14 -42.166 24 -56.499s21.333 -24.666 34 -30.999s26 -9.5 40 -9.5s28 3.33301 42 10
s26.333 17.334 37 32.001s19.334 33.834 26.001 57.501s10 52.5 10 86.5z" />
    <glyph glyph-name="one" unicode="1" horiz-adv-x="256" 
d="M219 512l-0.00195312 -512h-87v396c-11.333 -7.33301 -27.166 -15.166 -47.499 -23.499s-41.166 -14.833 -62.499 -19.5v75c16 6 31 13.667 45 23s26.667 18.666 38 27.999c12 10.667 23.667 21.667 35 33h79z" />
    <glyph glyph-name="two" unicode="2" horiz-adv-x="366" 
d="M252 375c0 26.667 -7.50195 45 -22.502 55s-31.833 15 -50.5 15c-10.667 0 -22.167 -1 -34.5 -3s-24.666 -5 -36.999 -9s-24.166 -8.83301 -35.499 -14.5s-21.333 -12.5 -30 -20.5v73c14 14.667 32.833 27 56.5 37s50.5 15 80.5 15c24 0 45.833 -3.5 65.5 -10.5
s36.5 -16.667 50.5 -29s24.833 -27.333 32.5 -45s11.5 -36.834 11.5 -57.501c0 -25.333 -4.66699 -48.166 -14 -68.499s-21.333 -39.166 -36 -56.499s-30.834 -33.333 -48.501 -48l-51.5 -43c-16.667 -14 -31.667 -28.167 -45 -42.5s-22.666 -29.833 -27.999 -46.5h243v-76
h-337v62c0 20 5.66699 39.167 17 57.5s25.5 36 42.5 53s35.5 33.667 55.5 50s38.5 32.666 55.5 48.999s31.167 33 42.5 50s17 34.833 17 53.5z" />
    <glyph glyph-name="three" unicode="3" horiz-adv-x="376" 
d="M354 145c0 -46 -17.002 -83.168 -51.002 -111.501s-81.333 -42.5 -142 -42.5c-23.333 0 -46.333 3.66699 -69 11s-41 15 -55 23v79c16 -13.333 35.167 -23 57.5 -29s44.5 -9 66.5 -9c10.667 0 22.334 1.33301 35.001 4s24.167 6.83398 34.5 12.501s19 13.167 26 22.5
s10.5 21 10.5 35c0 15.333 -3.16699 28.333 -9.5 39s-16.5 19.5 -30.5 26.5s-32.5 12 -55.5 15s-51.167 4.5 -84.5 4.5v75c30 -0.666992 56.667 1.66602 80 6.99902c10 2 19.833 4.83301 29.5 8.5s18.167 8.33398 25.5 14.001s13.333 12.5 18 20.5s7 17.333 7 28
c0 14 -2 25.333 -6 34s-9.33301 15.5 -16 20.5s-14.167 8.33301 -22.5 10s-16.5 2.5 -24.5 2.5c-23.333 0 -45.5 -2.66699 -66.5 -8s-39.167 -13.666 -54.5 -24.999v74c15.333 10 33.5 18.667 54.5 26s43.167 11 66.5 11c18.667 0 37.334 -3 56.001 -9
s35.334 -14.667 50.001 -26s26.667 -25 36 -41s14 -33.667 14 -53c0 -38 -11.333 -67 -34 -87s-50.334 -33 -83.001 -39c16 -2 32.167 -6 48.5 -12s31 -14 44 -24s23.667 -22.333 32 -37s12.5 -31.334 12.5 -50.001z" />
    <glyph glyph-name="four" unicode="4" horiz-adv-x="387" 
d="M238 512h81v-317h61v-78h-61v-117h-87v117h-225v69zM112 195h120v172z" />
    <glyph glyph-name="five" unicode="5" horiz-adv-x="356" 
d="M334 157c0 -50 -16.4971 -90.166 -49.4971 -120.499s-81.5 -45.5 -145.5 -45.5c-23.333 0 -43.5 2.66699 -60.5 8s-30.833 10.666 -41.5 15.999v83c9.33301 -6 19.666 -11.333 30.999 -16c9.33301 -4 20.166 -7.5 32.499 -10.5s25.166 -4.5 38.499 -4.5
c15.333 0 29.5 1.33301 42.5 4s24.333 7.33398 34 14.001s17.334 15.5 23.001 26.5s8.5 24.833 8.5 41.5c0 25.333 -8.16699 47.333 -24.5 66s-41.833 28 -76.5 28c-15.333 0 -29.833 -0.833008 -43.5 -2.5s-25.167 -3.16699 -34.5 -4.5l-31 -7v279h263v-77h-176v-116h30
c24.667 0 48 -3.33301 70 -10s41.167 -16.834 57.5 -30.501s29.166 -30.667 38.499 -51s14 -43.833 14 -70.5z" />
    <glyph glyph-name="six" unicode="6" horiz-adv-x="391" 
d="M22 223c0 50.667 5.33105 94.666 15.998 131.999s25.5 68.5 44.5 93.5s41.667 43.667 68 56s55.166 18.5 86.499 18.5c8 0 16.667 -0.333008 26 -1s18.666 -1.66699 27.999 -3s18.333 -2.83301 27 -4.5s16 -3.83398 22 -6.50098v-77c-10 2 -20.667 4.33301 -32 7
c-9.33301 2 -20.166 3.66699 -32.499 5s-25.166 2 -38.499 2c-38 -0.666992 -67.333 -14.167 -88 -40.5s-32.667 -61.166 -36 -104.499c12.667 12.667 27.834 21.167 45.501 25.5s34.5 6.5 50.5 6.5c20.667 0 40.667 -4.16699 60 -12.5s36.333 -20 51 -35
s26.5 -32.833 35.5 -53.5s13.5 -43 13.5 -67c0 -25.333 -4.5 -48.5 -13.5 -69.5s-21.167 -39.167 -36.5 -54.5s-33.666 -27.333 -54.999 -36s-44 -13 -68 -13c-24.667 0 -47.5 5.16699 -68.5 15.5s-39.333 25.333 -55 45s-28 43.834 -37 72.501s-13.5 61.667 -13.5 99z
M113.998 168.999c0 -18.667 2.5 -34.4971 7.5 -47.4971s11.333 -23.667 19 -32s16.334 -14.333 26.001 -18s19.5 -5.5 29.5 -5.5s20 2.16699 30 6.5s19.167 10.666 27.5 18.999s15.166 18.666 20.499 30.999s8 26.166 8 41.499c0 17.333 -2.5 32 -7.5 44
s-11.5 21.5 -19.5 28.5s-17.167 12 -27.5 15s-20.833 4.5 -31.5 4.5c-14.667 0 -27.167 -3 -37.5 -9s-18.833 -13.333 -25.5 -22s-11.5 -18 -14.5 -28s-4.5 -19.333 -4.5 -28z" />
    <glyph glyph-name="seven" unicode="7" horiz-adv-x="362" 
d="M355 511v-30l-180 -481h-90l165 435h-243v77z" />
    <glyph glyph-name="eight" unicode="8" horiz-adv-x="381" 
d="M42 385c0 18 3.50098 35.167 10.501 51.5s17 31 30 44s28.667 23.333 47 31s38.5 11.5 60.5 11.5c20.667 0 40.167 -4 58.5 -12s34.166 -18.5 47.499 -31.5s23.833 -27.833 31.5 -44.5s11.5 -33.334 11.5 -50.001c0 -23.333 -4.83301 -43.666 -14.5 -60.999
s-23.167 -33.333 -40.5 -48c24 -14.667 42.5 -34 55.5 -58s19.5 -49.667 19.5 -77c0 -45.333 -14.833 -81.666 -44.5 -108.999s-70.5 -41 -122.5 -41c-55.333 0 -97.5 13.667 -126.5 41s-43.5 63.666 -43.5 108.999c0 56.667 25 101.667 75 135
c-19.333 14 -33.333 30.5 -42 49.5s-13 38.833 -13 59.5zM190.001 237c-10 0 -19.8301 -1.66602 -29.4971 -4.99902s-18.334 -8.5 -26.001 -15.5s-13.834 -15.833 -18.501 -26.5s-7 -23.334 -7 -38.001c0 -30 8.16699 -51.833 24.5 -65.5s35.166 -20.5 56.499 -20.5
s40.333 6.66699 57 20s25 35 25 65c0 25.333 -7.66699 46 -23 62s-35 24 -59 24zM129.004 379.001c0 -21.333 5.83398 -37.4971 17.501 -48.4971s26.167 -16.5 43.5 -16.5c14 0 28 5.5 42 16.5s21 27.167 21 48.5c0 6.66699 -1.33301 14 -4 22s-6.66699 15.167 -12 21.5
s-11.833 11.666 -19.5 15.999s-16.834 6.5 -27.501 6.5c-12 0 -22 -2.16699 -30 -6.5s-14.167 -9.83301 -18.5 -16.5s-7.5 -13.834 -9.5 -21.501s-3 -14.834 -3 -21.501z" />
    <glyph glyph-name="nine" unicode="9" horiz-adv-x="390" 
d="M368 285c0 -96.667 -19.502 -169.828 -58.502 -219.495s-93.833 -74.5 -164.5 -74.5c-15.333 0 -31.833 1 -49.5 3s-32.5 5.33301 -44.5 10v77c8 -2.66699 17 -5.33398 27 -8.00098c8.66699 -2 18.5 -3.66699 29.5 -5s23.167 -2 36.5 -2c14.667 0 29 2.33301 43 7
s27 12.5 39 23.5s22.5 26 31.5 45s15.5 42.5 19.5 70.5c-12 -12.667 -27 -21.167 -45 -25.5s-35 -6.5 -51 -6.5c-21.333 0 -41.666 4.5 -60.999 13.5s-36.333 21.167 -51 36.5s-26.167 33.166 -34.5 53.499s-12.5 42.166 -12.5 65.499c0 26 4.66699 49.667 14 71
s21.833 39.666 37.5 54.999s33.834 27.166 54.501 35.499s42.667 12.5 66 12.5c26.667 0 50.667 -5.83301 72 -17.5s39.5 -28 54.5 -49s26.667 -46 35 -75s12.5 -61.167 12.5 -96.5zM276.998 340.006c0 12.667 -1.5 25.334 -4.5 38.001s-7.66699 24 -14 34
s-14.833 18 -25.5 24s-23.667 9 -39 9c-13.333 0 -25.333 -3 -36 -9s-19.667 -13.5 -27 -22.5s-13 -19.333 -17 -31s-6 -22.834 -6 -33.501c0 -26.667 6.5 -49 19.5 -67s35.167 -27 66.5 -27c16 0 29.333 3.33301 40 10s19.167 14.667 25.5 24s10.833 18.833 13.5 28.5
s4 17.167 4 22.5z" />
    <glyph glyph-name="colon" unicode=":" horiz-adv-x="161" 
d="M37 286v86h87v-86h-87zM37 0v86h87v-86h-87z" />
    <glyph glyph-name="semicolon" unicode=";" horiz-adv-x="162" 
d="M37 285v87h88v-87h-88zM37 85l88.001 0.00195312v-74c0 -17.333 -4.16699 -33.333 -12.5 -48s-17.5 -27.334 -27.5 -38.001c-12 -12 -25.333 -23.333 -40 -34h-86c14 11.333 27 23.333 39 36c9.33301 11.333 18.166 24.166 26.499 38.499s12.5 29.5 12.5 45.5v74z" />
    <glyph glyph-name="less" unicode="&#x3c;" horiz-adv-x="388" 
d="M381 63v-84l-359 176v42l359 199v-87l-236 -132z" />
    <glyph glyph-name="equal" unicode="=" horiz-adv-x="401" 
d="M37 110v75h327v-75h-327zM37 237v75h327v-75h-327z" />
    <glyph glyph-name="greater" unicode="&#x3e;" horiz-adv-x="388" 
d="M7 -21v84l236 114l-236 132v87l359 -199v-42z" />
    <glyph glyph-name="question" unicode="?" horiz-adv-x="341" 
d="M97 0v86h87v-86h-87zM184 138l-87 0.00195312v89c0 19.333 6.16699 35.833 18.5 49.5s26 26.5 41 38.5s28.833 24.167 41.5 36.5s19 26.833 19 43.5c0 17.333 -5.83301 30 -17.5 38s-26.834 12 -45.501 12c-18 0 -34.167 -2.5 -48.5 -7.5s-26.5 -10.167 -36.5 -15.5
c-12 -6.66699 -22.667 -14 -32 -22v72c6.66699 9.33301 16 17.666 28 24.999c10 6.66699 22.833 12.667 38.5 18s34.834 8 57.501 8c18.667 0 36.5 -3 53.5 -9s32.167 -14.333 45.5 -25s24 -23.5 32 -38.5s12 -31.5 12 -49.5c0 -26 -6.33301 -47.333 -19 -64
s-26.5 -31 -41.5 -43l-41 -34c-12.333 -10.667 -18.5 -23.334 -18.5 -38.001v-84z" />
    <glyph glyph-name="at" unicode="@" horiz-adv-x="654" 
d="M386 106c-8.66699 -16 -20.1611 -29.6641 -34.4941 -40.9971s-35.5 -17 -63.5 -17c-17.333 0 -34 3.16699 -50 9.5s-30.167 15.833 -42.5 28.5s-22.166 28.167 -29.499 46.5s-11 39.166 -11 62.499c0 24 4.66699 46 14 66s21.666 37 36.999 51s32.333 24.833 51 32.5
s37.667 11.5 57 11.5c18.667 0 36.167 -4.66699 52.5 -14s27.166 -19.666 32.499 -30.999l8 40h72l-30 -164c-1.33301 -14 -1.33301 -26.667 0 -38c1.33301 -9.33301 3.66602 -17.833 6.99902 -25.5s9.33301 -11.5 18 -11.5c13.333 0 25.166 4.33301 35.499 13
s19 19.167 26 31.5s12.333 25.833 16 40.5s5.5 28 5.5 40c0 19.333 -4.83301 40.333 -14.5 63s-23.667 43.667 -42 63s-41.166 35.5 -68.499 48.5s-59 19.5 -95 19.5s-68.833 -7.5 -98.5 -22.5s-55 -33.833 -76 -56.5s-37.167 -47.834 -48.5 -75.501
s-17 -53.834 -17 -78.501c0 -26.667 5 -52.834 15 -78.501s24.833 -48.667 44.5 -69s43.667 -36.833 72 -49.5s60.833 -19 97.5 -19c26 0 51.5 3 76.5 9s47.5 12.667 67.5 20v-52c-22.667 -7.33301 -46 -13.666 -70 -18.999s-48.667 -8 -74 -8
c-40 0 -77.5 6.66699 -112.5 20s-65.5 31.833 -91.5 55.5s-46.667 51.667 -62 84s-23 67.833 -23 106.5c0 39.333 8.16699 76.166 24.5 110.499s38.166 64.333 65.499 90s59.166 45.834 95.499 60.501s74.5 22 114.5 22c38.667 0 75 -6.16699 109 -18.5
s63.667 -29.5 89 -51.5s45.333 -47.833 60 -77.5s22 -61.834 22 -96.501c0 -26.667 -4.33301 -51.5 -13 -74.5s-19.834 -43 -33.501 -60s-29.334 -30.333 -47.001 -40s-35.5 -14.5 -53.5 -14.5c-27.333 0 -46.833 5.33301 -58.5 16s-20.167 24.667 -25.5 42z
M324.006 286.003c-13.333 0 -24.999 -2.5 -34.999 -7.5s-18.5 -11.667 -25.5 -20s-12.167 -18 -15.5 -29s-5 -22.5 -5 -34.5c0 -14 1.83301 -25.667 5.5 -35s8 -16.5 13 -21.5s10.333 -8.5 16 -10.5s10.5 -3 14.5 -3c13.333 0 24.666 3 33.999 9s16.833 14 22.5 24
s9.66699 21.5 12 34.5s3.5 26.5 3.5 40.5c0 35.333 -13.333 53 -40 53z" />
    <glyph glyph-name="A" unicode="A" horiz-adv-x="472" 
d="M168 205h133l-65 188zM275 512l190 -512h-89l-48 128h-187l-49 -128h-85l189 512h79z" />
    <glyph glyph-name="B" unicode="B" horiz-adv-x="411" 
d="M37 0v511.997h153c24 0 45.5 -3.16699 64.5 -9.5s35.167 -15.166 48.5 -26.499s23.5 -24.666 30.5 -39.999s10.5 -32 10.5 -50c0 -16.667 -2.83301 -31.5 -8.5 -44.5s-13.334 -24.333 -23.001 -34s-20.667 -17.167 -33 -22.5s-25.166 -9 -38.499 -11
c15.333 -1.33301 31 -4.66602 47 -9.99902s30.333 -12.833 43 -22.5s23 -22 31 -37s12 -32.833 12 -53.5c0 -24 -5.16699 -45.333 -15.5 -64s-24 -34.5 -41 -47.5s-36.667 -22.833 -59 -29.5s-45.5 -10 -69.5 -10h-152zM124 434.997l0.000976562 -126.001h42
c28 0 50.167 5.5 66.5 16.5s24.5 27.833 24.5 50.5c0 12 -2.5 21.667 -7.5 29s-11.333 13.333 -19 18s-16.334 7.83398 -26.001 9.50098s-19.5 2.5 -29.5 2.5h-51zM124.001 231.996v-156h59c31.333 0 56.5 7.16699 75.5 21.5s28.5 32.166 28.5 53.499
c0 22.667 -8.66699 41.834 -26 57.501s-46 23.5 -86 23.5h-51z" />
    <glyph glyph-name="C" unicode="C" horiz-adv-x="440" 
d="M433 27c-19.333 -11.333 -43.1689 -20.1689 -71.502 -26.502s-58.5 -9.5 -90.5 -9.5c-37.333 0 -71.166 6.33301 -101.499 19s-56.5 30.5 -78.5 53.5s-39 50.5 -51 82.5s-18 67 -18 105c0 40.667 6.5 77.834 19.5 111.501s31 62.334 54 86.001s50 42 81 55
s64.833 19.5 101.5 19.5c33.333 0 63.5 -2.66699 90.5 -8s48.5 -11.666 64.5 -18.999l-30 -75c-19.333 9.33301 -39.666 15.666 -60.999 18.999s-42.666 5 -63.999 5c-30 0 -55.667 -6.33301 -77 -19s-38.833 -28.5 -52.5 -47.5s-23.5 -40 -29.5 -63s-9 -44.5 -9 -64.5
c0 -28 4 -53.333 12 -76s19.333 -42.167 34 -58.5s32.334 -28.833 53.001 -37.5s43.667 -13 69 -13s47.666 3.33301 66.999 10s38.666 15 57.999 25z" />
    <glyph glyph-name="D" unicode="D" horiz-adv-x="486" 
d="M37 0v512.001h147c42.667 0 81.334 -4.83301 116.001 -14.5s64.167 -24.667 88.5 -45s43 -46.333 56 -78s19.5 -69.5 19.5 -113.5c0 -40.667 -7.33301 -77.167 -22 -109.5s-34.834 -59.833 -60.501 -82.5s-56 -39.834 -91 -51.501s-72.5 -17.5 -112.5 -17.5h-141z
M124 435.001v-359h54c32 0 60.333 4.66699 85 14s45.5 22.166 62.5 38.499s29.833 35.833 38.5 58.5s13 47.334 13 74.001c0 56 -15.5 99 -46.5 129s-79.833 45 -146.5 45h-60z" />
    <glyph glyph-name="E" unicode="E" horiz-adv-x="361" 
d="M324 76v-76h-287v512h287v-77h-200v-141h180v-77h-180v-141h200z" />
    <glyph glyph-name="F" unicode="F" horiz-adv-x="331" 
d="M124 217v-217h-87v512h287v-77h-200v-141h180v-77h-180z" />
    <glyph glyph-name="G" unicode="G" horiz-adv-x="496" 
d="M459 274v-242.994c-25.333 -14.667 -54.5 -25 -87.5 -31s-65.5 -9 -97.5 -9c-35.333 0 -68.333 6 -99 18s-57.334 29 -80.001 51s-40.5 48.667 -53.5 80s-19.5 66.666 -19.5 105.999c0 38.667 6.83301 75 20.5 109s32.667 63.333 57 88s53.333 44.167 87 58.5
s70.5 21.5 110.5 21.5c26.667 0 49.5 -2 68.5 -6s34.833 -8.33301 47.5 -13c14.667 -5.33301 26.667 -11.333 36 -18v-84c-4 3.33301 -10.5 7.5 -19.5 12.5s-20.167 9.66699 -33.5 14s-29.166 8.16602 -47.499 11.499s-38.5 5 -60.5 5c-30 0 -56.167 -6 -78.5 -18
s-41 -27.5 -56 -46.5s-26.167 -40.333 -33.5 -64s-11 -47.167 -11 -70.5s3.5 -45.833 10.5 -67.5s17.5 -40.834 31.5 -57.501s31.5 -30 52.5 -40s45.833 -15 74.5 -15c10.667 0 20 0.166992 28 0.5s15.5 1.16602 22.5 2.49902s14 3.16602 21 5.49902
s14.5 5.16602 22.5 8.49902v115h-110v76h197z" />
    <glyph glyph-name="H" unicode="H" horiz-adv-x="471" 
d="M434 512v-512h-87v227h-223v-227h-87v512h87v-208h223l-1 208h88z" />
    <glyph glyph-name="I" unicode="I" horiz-adv-x="161" 
d="M37 0v512h87v-512h-87z" />
    <glyph glyph-name="J" unicode="J" horiz-adv-x="285" 
d="M248 512l-0.000976562 -329.002c0 -34 -4.33301 -63.333 -13 -88s-20.167 -44.667 -34.5 -60s-31.166 -26.666 -50.499 -33.999s-39.666 -11 -60.999 -11c-12.667 0 -24 1 -34 3s-18.667 4.33301 -26 7c-8 2.66699 -15.333 6.33398 -22 11.001l30 67
c5.33301 -2 11.333 -4 18 -6c5.33301 -1.33301 11.333 -2.66602 18 -3.99902s13.667 -2 21 -2c21.333 0 37.666 9.16699 48.999 27.5s17 48.166 17 89.499v329h88z" />
    <glyph glyph-name="K" unicode="K" horiz-adv-x="424" 
d="M417 0h-93l-120 259l-80 -98v-161h-87v512h87v-221l179 221h105l-146 -183z" />
    <glyph glyph-name="L" unicode="L" horiz-adv-x="331" 
d="M324 76v-76h-287v512h87v-436h200z" />
    <glyph glyph-name="M" unicode="M" horiz-adv-x="611" 
d="M574 512v-512h-87v352l-163 -352h-48l-152 347v-347h-87v512h102l162 -376l170 376h103z" />
    <glyph glyph-name="N" unicode="N" horiz-adv-x="501" 
d="M464 512v-512h-96l-244 371v-371h-87v512h96l243 -376v376h88z" />
    <glyph glyph-name="O" unicode="O" horiz-adv-x="541" 
d="M264 66c23.333 0 45.332 3.83594 65.999 11.5029s38.5 19.5 53.5 35.5s26.833 36.167 35.5 60.5s13 53.166 13 86.499c0 30 -4.16699 56.667 -12.5 80s-19.833 42.666 -34.5 57.999s-31.5 27 -50.5 35s-39.167 12 -60.5 12c-23.333 0 -45.166 -4 -65.499 -12
s-37.833 -20.167 -52.5 -36.5s-26.167 -36.833 -34.5 -61.5s-12.5 -53.334 -12.5 -86.001c0 -30 4.16699 -56.5 12.5 -79.5s19.5 -42.167 33.5 -57.5s30.333 -26.833 49 -34.5s38.667 -11.5 60 -11.5zM263.999 -8.99707c-37.333 0 -70.8311 6.33008 -100.498 18.9971
s-55 30.334 -76 53.001s-37.167 49.834 -48.5 81.501s-17 66.5 -17 104.5c0 40.667 5.66699 77.834 17 111.501s27.833 62.5 49.5 86.5s47.834 42.667 78.501 56s65.667 20 105 20c38 0 72.167 -6.66699 102.5 -20s56.166 -31.666 77.499 -54.999s37.833 -51 49.5 -83
s17.5 -67 17.5 -105c0 -40.667 -5.83301 -77.5 -17.5 -110.5s-28.334 -61.333 -50.001 -85s-48.334 -41.834 -80.001 -54.501s-67.5 -19 -107.5 -19z" />
    <glyph glyph-name="P" unicode="P" horiz-adv-x="386" 
d="M124 178v-178.003h-87v512h146c26 0 50 -3.16699 72 -9.5s41.167 -16.166 57.5 -29.499s29 -30.166 38 -50.499s13.5 -44.166 13.5 -71.499c0 -29.333 -5 -54.833 -15 -76.5s-23.667 -39.667 -41 -54s-37.833 -25 -61.5 -32s-49.5 -10.5 -77.5 -10.5h-45zM124 434.997
l0.000976562 -180.998h45c39.333 0 67.166 9 83.499 27s24.5 41 24.5 69c0 12.667 -1.16699 24.167 -3.5 34.5s-7 19.166 -14 26.499s-16.5 13.166 -28.5 17.499s-28 6.5 -48 6.5h-59z" />
    <glyph glyph-name="Q" unicode="Q" horiz-adv-x="541" 
d="M264 66c23.333 0 45.168 3.83594 65.501 11.5029s38.166 19.5 53.499 35.5s27.333 36.167 36 60.5s13 53.166 13 86.499c0 30 -4.16699 56.667 -12.5 80s-20 42.666 -35 57.999s-32.5 27 -52.5 35s-41.667 12 -65 12c-21.333 0 -41.5 -4 -60.5 -12
s-35.833 -20.167 -50.5 -36.5s-26.167 -36.833 -34.5 -61.5s-12.5 -53.334 -12.5 -86.001c0 -30 4 -56.5 12 -79.5s18.833 -42.167 32.5 -57.5s30 -26.833 49 -34.5s39.5 -11.5 61.5 -11.5zM257.002 -8.99707c-34.667 0 -66.502 6.3291 -95.502 18.9961
s-53.833 30.334 -74.5 53.001s-36.667 49.834 -48 81.501s-17 66.5 -17 104.5c0 40.667 5.83301 77.834 17.5 111.501s28.334 62.5 50.001 86.5s47.5 42.667 77.5 56s63.333 20 100 20c38.667 0 73.667 -6.66699 105 -20s57.833 -31.666 79.5 -54.999s38.334 -51 50.001 -83
s17.5 -67 17.5 -105c0 -57.333 -11.167 -106.333 -33.5 -147s-51.5 -71 -87.5 -91c8 -3.33301 16.667 -7.5 26 -12.5s17.833 -11.167 25.5 -18.5s14 -16 19 -26s7.5 -21.333 7.5 -34h-83c0 9.33301 -2.16699 17.5 -6.5 24.5s-9.66602 13.333 -15.999 19
s-13.333 10.334 -21 14.001s-14.5 6.5 -20.5 8.5c-10.667 -2.66699 -22.334 -4.33398 -35.001 -5.00098s-25 -1 -37 -1z" />
    <glyph glyph-name="R" unicode="R" horiz-adv-x="437" 
d="M430 0l-100.002 -0.00195312l-76 126c-18.667 30.667 -36 51.834 -52 63.501s-31 17.5 -45 17.5h-33v-207h-87v512h160c21.333 0 42 -3 62 -9s37.833 -15 53.5 -27s28.334 -27.167 38.001 -45.5s14.5 -39.5 14.5 -63.5c0 -17.333 -3.5 -32.833 -10.5 -46.5
s-16 -25.5 -27 -35.5s-23.167 -17.833 -36.5 -23.5s-26.666 -9.5 -39.999 -11.5c15.333 -5.33301 30.5 -18.666 45.5 -39.999s30.167 -44.333 45.5 -69zM123.998 434.998v-150.999l61 1c29.333 0.666992 52 7.66699 68 21s24 33.666 24 60.999
c0 19.333 -7.33301 35.5 -22 48.5s-38 19.5 -70 19.5h-61z" />
    <glyph glyph-name="S" unicode="S" horiz-adv-x="421" 
d="M364 411c-12.667 6 -26.9971 11.6611 -42.9971 16.9941c-13.333 4 -29.333 7.83301 -48 11.5s-39.667 5.5 -63 5.5s-43.333 -5.16699 -60 -15.5s-25 -23.166 -25 -38.499c0 -16.667 6.33301 -29.667 19 -39s28.667 -17.666 48 -24.999s40.166 -14.666 62.499 -21.999
s43.166 -17.166 62.499 -29.499s35.333 -28.333 48 -48s19 -45.167 19 -76.5c0 -22 -3.16699 -42.667 -9.5 -62s-17 -36.333 -32 -51s-34.5 -26.167 -58.5 -34.5s-53.333 -12.5 -88 -12.5c-26 0 -48.833 2.33301 -68.5 7s-36.167 9.66699 -49.5 15
c-16 6.66699 -29.667 14.334 -41 23.001v74c13.333 -8 28 -15.333 44 -22c13.333 -5.33301 28.833 -10.166 46.5 -14.499s36.167 -6.5 55.5 -6.5c34 0 61.5 6.16699 82.5 18.5s31.5 34.166 31.5 65.499c0 20 -6.5 35.833 -19.5 47.5s-29 21.334 -48 29.001
s-39.833 14.834 -62.5 21.501s-43.5 15.5 -62.5 26.5s-35 25.5 -48 43.5s-19.5 42 -19.5 72c0 19.333 4.66699 37 14 53s22 29.833 38 41.5s34.5 20.667 55.5 27s42.833 9.5 65.5 9.5c27.333 0 50.666 -1.83301 69.999 -5.5s35.333 -7.83398 48 -12.501
c14.667 -5.33301 26.667 -11.333 36 -18v-75z" />
    <glyph glyph-name="T" unicode="T" horiz-adv-x="376" 
d="M369 512v-77h-135v-435h-87v435h-140v77h362z" />
    <glyph glyph-name="U" unicode="U" horiz-adv-x="471" 
d="M434 512l0.000976562 -307.999c0 -74.667 -18.333 -128.834 -55 -162.501s-86.334 -50.5 -149.001 -50.5c-60 0 -107.167 16.5 -141.5 49.5s-51.5 85.167 -51.5 156.5v315h87v-311c0 -50 9.16699 -85 27.5 -105s44.5 -30 78.5 -30c16 0 31 2.16699 45 6.5
s26.333 11.5 37 21.5s19.167 23.167 25.5 39.5s9.5 36.833 9.5 61.5v317h87z" />
    <glyph glyph-name="V" unicode="V" horiz-adv-x="472" 
d="M236 123l140 389h89l-190 -512h-79l-189 512h88z" />
    <glyph glyph-name="W" unicode="W" horiz-adv-x="680" 
d="M585 512h88l-158 -512h-91l-81 345l-98 -345h-91l-147 512h88l105 -380l115 380h60l96 -378z" />
    <glyph glyph-name="X" unicode="X" horiz-adv-x="454" 
d="M278 256l169 -256h-103l-117 181l-118 -181h-102l168 256l-157 256h102l107 -181l117 181h103z" />
    <glyph glyph-name="Y" unicode="Y" horiz-adv-x="428" 
d="M330 512h91l-169 -324v-188h-88v186l-157 326h90l112 -232z" />
    <glyph glyph-name="Z" unicode="Z" horiz-adv-x="411" 
d="M404 512v-33l-268 -403h258v-76h-387v32l268 403h-248v77h377z" />
    <glyph glyph-name="bracketleft" unicode="[" horiz-adv-x="223" 
d="M37 -140v687h179v-76h-98v-535h98v-76h-179z" />
    <glyph glyph-name="backslash" unicode="\" horiz-adv-x="266" 
d="M259 0h-84l-168 624h84z" />
    <glyph glyph-name="bracketright" unicode="]" horiz-adv-x="223" 
d="M186 547v-687h-179v76h98v535h-98v76h179z" />
    <glyph glyph-name="asciicircum" unicode="^" horiz-adv-x="497" 
d="M123 193h-86l179 354h43l201 -354h-87l-134 233z" />
    <glyph glyph-name="underscore" unicode="_" horiz-adv-x="401" 
d="M37 -49v71h327v-71h-327z" />
    <glyph glyph-name="grave" unicode="`" horiz-adv-x="267" 
d="M132 573l98 -133h-83l-110 133h95z" />
    <glyph glyph-name="a" unicode="a" horiz-adv-x="383" 
d="M180 61c15.333 0 31 4.00098 47 12.001s28 17.667 36 29v61l-25 -6c-16.667 -3.33301 -35 -5 -55 -5c-6.66699 0 -13.667 -1 -21 -3s-14 -4.83301 -20 -8.5s-11 -8.33398 -15 -14.001s-6 -12.167 -6 -19.5c0 -18.667 6 -31 18 -37s25.667 -9 41 -9zM346 0.000976562
l-82.9961 -0.00292969v51c-4.66699 -5.33301 -10.334 -11.333 -17.001 -18s-14.167 -13 -22.5 -19s-17.833 -11 -28.5 -15s-22.334 -6 -35.001 -6c-35.333 0 -64.833 10.333 -88.5 31s-34.834 48.334 -33.501 83.001c0.666992 22 5.5 39.667 14.5 53
s19.833 23.833 32.5 31.5s26.334 12.834 41.001 15.501s28.334 4 41.001 4c17.333 0 32.166 0.666992 44.499 2s22.166 3 29.499 5c8.66699 2.66699 15.667 5.33398 21 8.00098c0 18 -2.16699 32.833 -6.5 44.5s-10 20.834 -17 27.501s-15.333 11.334 -25 14.001
s-19.5 4 -29.5 4c-20.667 0 -38.667 -3.33301 -54 -10s-28 -13.667 -38 -21c-12 -8.66699 -22.333 -18.667 -31 -30l-24 54c7.33301 14 17.666 27 30.999 39c11.333 9.33301 26.5 18.166 45.5 26.499s43.167 12.5 72.5 12.5c20.667 0 40.667 -3 60 -9s36.333 -15 51 -27
s26.5 -27.333 35.5 -46s13.5 -40.334 13.5 -65.001v-240z" />
    <glyph glyph-name="b" unicode="b" horiz-adv-x="431" 
d="M119 0l-81.999 0.000976562v542h82v-221c6 12.667 14 24 24 34c8.66699 8.66699 20 16.5 34 23.5s31 10.5 51 10.5c17.333 0 36.5 -3.83301 57.5 -11.5s40.667 -19.334 59 -35.001s33.666 -35.5 45.999 -59.5s18.5 -52.667 18.5 -86
c0 -36.667 -5.83301 -67.834 -17.5 -93.501s-26.5 -46.5 -44.5 -62.5s-37.833 -27.667 -59.5 -35s-42.5 -11 -62.5 -11s-36.833 3.33301 -50.5 10s-24.5 14.334 -32.5 23.001c-10 9.33301 -17.667 20.333 -23 33v-61zM119.001 113.001
c8.66699 -8.66699 18.666 -16.334 29.999 -23.001c9.33301 -6 20.166 -11.333 32.499 -16s25.833 -7 40.5 -7c12.667 0 25.334 2.33301 38.001 7s24 12.167 34 22.5s18 23.833 24 40.5s9 36.667 9 60c0 18.667 -3.16699 35.334 -9.5 50.001s-14.5 27.167 -24.5 37.5
s-21.167 18.333 -33.5 24s-24.833 8.5 -37.5 8.5c-14.667 0 -28.167 -2.5 -40.5 -7.5s-23.166 -10.5 -32.499 -16.5c-11.333 -7.33301 -21.333 -15 -30 -23v-157z" />
    <glyph glyph-name="c" unicode="c" horiz-adv-x="335" 
d="M328 27c-11.333 -6 -23.3311 -11.3359 -35.998 -16.0029c-11.333 -4 -23.833 -7.66699 -37.5 -11s-27.5 -5 -41.5 -5c-26 0 -50.5 4 -73.5 12s-43.333 19.833 -61 35.5s-31.5 35 -41.5 58s-15 49.833 -15 80.5s5 58.667 15 84s23.833 47 41.5 65s38.167 32 61.5 42
s48.333 15 75 15c15.333 0 29.666 -1.83301 42.999 -5.5s25.333 -7.5 36 -11.5c12 -4.66699 23.333 -10 34 -16l-33 -71c-8 6 -16 11.333 -24 16c-7.33301 4 -15.666 7.83301 -24.999 11.5s-19.333 5.5 -30 5.5c-17.333 0 -32.833 -3.83301 -46.5 -11.5
s-25.334 -17.667 -35.001 -30s-17.167 -26.666 -22.5 -42.999s-8 -33.166 -8 -50.499c0 -36 10.333 -64.167 31 -84.5s48 -30.5 82 -30.5c10.667 0 20.667 1.66699 30 5s17.666 7 24.999 11c8 4.66699 15.667 10.334 23 17.001z" />
    <glyph glyph-name="d" unicode="d" horiz-adv-x="431" 
d="M312 0l-0.000976562 61.001c-7.33301 -12.667 -16.666 -23.667 -27.999 -33c-9.33301 -8 -21.166 -15.333 -35.499 -22s-31.5 -10 -51.5 -10s-40.333 4.16699 -61 12.5s-39.5 20.666 -56.5 36.999s-30.833 37.166 -41.5 62.499s-16 55 -16 89
c0 30.667 5.66699 57.834 17 81.501s25.5 43.5 42.5 59.5s35.667 28.167 56 36.5s39.166 12.5 56.499 12.5c20 0 37.333 -3.5 52 -10.5s27 -14.5 37 -22.5c11.333 -10 21 -21 29 -33v221h82v-542h-82zM311.999 270.001c-8 8 -17.333 15.667 -28 23
c-9.33301 5.33301 -20.833 10.5 -34.5 15.5s-29.167 7.5 -46.5 7.5c-12.667 0 -24.834 -3.16699 -36.501 -9.5s-22.167 -14.833 -31.5 -25.5s-16.833 -23.167 -22.5 -37.5s-8.5 -29.833 -8.5 -46.5c0 -20.667 2.83301 -39.167 8.5 -55.5s13 -30 22 -41
s19.333 -19.5 31 -25.5s23.834 -9 36.501 -9c17.333 0 32.833 2.33301 46.5 7s25.167 10 34.5 16c11.333 7.33301 21 15.333 29 24v157z" />
    <glyph glyph-name="e" unicode="e" horiz-adv-x="380" 
d="M358 162l-253 -0.00292969c0 -28.667 9.66699 -51.834 29 -69.501s45 -26.5 77 -26.5c18 0 33.167 1.83301 45.5 5.5s22.166 7.83398 29.499 12.501c8.66699 5.33301 16 11.333 22 18l29 -63c-10 -8 -21.667 -15.333 -35 -22
c-11.333 -5.33301 -25.166 -10.166 -41.499 -14.499s-34.833 -6.5 -55.5 -6.5c-26.667 0 -51.167 3.66699 -73.5 11s-41.666 18.833 -57.999 34.5s-29 35.334 -38 59.001s-13.5 51.834 -13.5 84.501c0 27.333 4.16699 53.166 12.5 77.499s20.166 45.833 35.499 64.5
s33.5 33.334 54.5 44.001s44.5 16 70.5 16c52.667 0 92.5 -16.667 119.5 -50s41.167 -78.333 42.5 -135zM272 233.997c-0.666992 20 -7.5 38.668 -20.5 56.001s-31.833 26 -56.5 26c-11.333 0 -22 -2.5 -32 -7.5s-18.833 -11.333 -26.5 -19s-14 -16.334 -19 -26.001
s-8.16699 -19.5 -9.5 -29.5h164z" />
    <glyph glyph-name="f" unicode="f" horiz-adv-x="261" 
d="M7 302v72.002h64l1 41c0.666992 19.333 3 37.333 7 54s10.5 31.167 19.5 43.5s20.667 22 35 29s32.5 10.5 54.5 10.5c11.333 0 21.333 -0.5 30 -1.5s15.667 -2.16699 21 -3.5c6.66699 -2 11.667 -3.66699 15 -5v-75c-4.66699 2 -9.66699 4.33301 -15 7l-15 4.5
c-5.33301 1.66699 -11 2.5 -17 2.5s-12.167 -0.833008 -18.5 -2.5s-12 -4.83398 -17 -9.50098s-9.16699 -11.334 -12.5 -20.001s-5 -20 -5 -34v-41h100v-72h-100v-302h-82v302h-65z" />
    <glyph glyph-name="g" unicode="g" horiz-adv-x="431" 
d="M312 269c-8 8 -17.667 15.6641 -29 22.9971c-9.33301 5.33301 -21 10.5 -35 15.5s-29.667 7.5 -47 7.5c-12.667 0 -24.834 -3 -36.501 -9s-22 -14.667 -31 -26s-16.167 -25 -21.5 -41s-8 -34 -8 -54c0 -15.333 2.66699 -30.166 8 -44.499s12.5 -27.166 21.5 -38.499
s19.333 -20.333 31 -27s23.834 -10 36.501 -10c17.333 0 33 2.33301 47 7s25.667 10 35 16c11.333 6.66699 21 14.334 29 23.001v158zM311 381.997l82.999 0.000976562v-360c0 -68.667 -17.333 -118.667 -52 -150s-86.667 -47 -156 -47c-20 0 -38.167 2.33301 -54.5 7
s-30.166 9.66699 -41.499 15c-13.333 6.66699 -25.666 14.334 -36.999 23.001l30 67c7.33301 -7.33301 16 -14 26 -20c8.66699 -5.33301 19.334 -9.83301 32.001 -13.5s27.667 -5.5 45 -5.5s33.666 1.66699 48.999 5s28.666 9.16602 39.999 17.499s20.333 19.833 27 34.5
s10 33.667 10 57v49c-6.66699 -12.667 -15 -23.667 -25 -33c-8.66699 -8.66699 -19.834 -16.334 -33.501 -23.001s-30.5 -10 -50.5 -10s-40.667 4 -62 12s-40.833 20 -58.5 36s-32.167 35.833 -43.5 59.5s-17 51.167 -17 82.5c0 34 5.5 63.667 16.5 89s25.333 46.333 43 63
s37 29.167 58 37.5s41.5 12.5 61.5 12.5s36.833 -3.5 50.5 -10.5s25.167 -14.5 34.5 -22.5c10.667 -10 19.334 -21 26.001 -33z" />
    <glyph glyph-name="h" unicode="h" horiz-adv-x="401" 
d="M364 0l-82 -0.000976562v247c0 18 -7 33.167 -21 45.5s-33.667 18.5 -59 18.5c-13.333 0 -25 -2.5 -35 -7.5s-18.667 -10.167 -26 -15.5c-8 -6.66699 -15.333 -14 -22 -22v-266h-82v542h82v-231c6.66699 14 15 26.667 25 38c8.66699 9.33301 19.5 18 32.5 26
s28.5 12 46.5 12c24 0 45 -3.83301 63 -11.5s32.667 -18 44 -31s19.833 -28.167 25.5 -45.5s8.5 -35.666 8.5 -54.999v-244z" />
    <glyph glyph-name="i" unicode="i" horiz-adv-x="156" 
d="M37 436v81h82v-81h-82zM37 0v382h82v-382h-82z" />
    <glyph glyph-name="j" unicode="j" horiz-adv-x="156" 
d="M37 436v81h82v-81h-82zM-75 -82c4.66699 -4 9.33301 -7.33203 14 -9.99902c4 -2.66699 8.5 -5 13.5 -7s9.83301 -3 14.5 -3c20 0 36.667 7.66699 50 23s20 43.333 20 84v377h82v-365c0 -57.333 -12.833 -103.5 -38.5 -138.5s-63.834 -52.5 -114.501 -52.5
c-11.333 0 -21.333 1.33301 -30 4s-16 5.66699 -22 9c-7.33301 3.33301 -13.666 7.66602 -18.999 12.999z" />
    <glyph glyph-name="k" unicode="k" horiz-adv-x="366" 
d="M255 377h96l-109 -134l115 -243h-83l-83 180l-72 -90v-90h-82v542h82v-333z" />
    <glyph glyph-name="l" unicode="l" horiz-adv-x="156" 
d="M37 0v542h82v-542h-82z" />
    <glyph glyph-name="m" unicode="m" horiz-adv-x="646" 
d="M609 0l-81.998 -0.000976562v247c0 15.333 -6.5 29.833 -19.5 43.5s-32.167 20.5 -57.5 20.5c-12.667 0 -24.167 -2.5 -34.5 -7.5s-19.166 -10.167 -26.499 -15.5c-8.66699 -6.66699 -17 -14 -25 -22v-266h-82v247c0 18.667 -7 33.834 -21 45.501s-33.667 17.5 -59 17.5
c-12 0 -23.167 -2.33301 -33.5 -7s-19.166 -9.66699 -26.499 -15c-8.66699 -6.66699 -16.334 -14 -23.001 -22v-266h-82v382h82v-71c0 0.666992 2.16699 5 6.5 13s10.666 16.667 18.999 26s19.333 17.833 33 25.5s30.167 11.5 49.5 11.5c34 0 61 -8.16699 81 -24.5
s34.667 -34.833 44 -55.5l13 19c6 8.66699 13.667 17.5 23 26.5s20.666 17 33.999 24s28.666 10.5 45.999 10.5c24 0 45 -4 63 -12s32.667 -18.667 44 -32s19.833 -28.5 25.5 -45.5s8.5 -34.833 8.5 -53.5v-244z" />
    <glyph glyph-name="n" unicode="n" horiz-adv-x="401" 
d="M364 0h-82.001l-1 247c0 16 -6.5 30.667 -19.5 44s-31.167 20 -54.5 20c-13.333 0 -25.5 -2.5 -36.5 -7.5s-20.167 -10.167 -27.5 -15.5c-8.66699 -6.66699 -16.667 -14 -24 -22v-266h-82v382h82v-71c6.66699 14 15.334 26.667 26.001 38
c9.33301 9.33301 20.833 18 34.5 26s30.167 12 49.5 12c22.667 0 42.5 -4 59.5 -12s31 -18.667 42 -32s19.333 -28.5 25 -45.5s8.5 -34.833 8.5 -53.5v-244z" />
    <glyph glyph-name="o" unicode="o" horiz-adv-x="420" 
d="M206 66c38 0 65.833 11.999 83.5 35.999s26.5 54.667 26.5 92c0 16.667 -2.16699 32.334 -6.5 47.001s-10.666 27.5 -18.999 38.5s-19 19.833 -32 26.5s-28.167 10 -45.5 10c-19.333 0 -35.833 -3.5 -49.5 -10.5s-24.834 -16.5 -33.501 -28.5
s-15.167 -25.833 -19.5 -41.5s-6.5 -32.167 -6.5 -49.5c0 -16 2 -31.333 6 -46s10.167 -27.5 18.5 -38.5s19 -19.667 32 -26s28.167 -9.5 45.5 -9.5zM206 -5.00098c-28 0 -53.333 4.66406 -76 13.9971s-42 22.333 -58 39s-28.333 36.834 -37 60.501s-13 49.5 -13 77.5
c0 30 4.33301 57.333 13 82s21.167 45.834 37.5 63.501s36.333 31.334 60 41.001s50.5 14.5 80.5 14.5c28.667 0 54.5 -4.83301 77.5 -14.5s42.5 -23 58.5 -40s28.167 -37.333 36.5 -61s12.5 -49.5 12.5 -77.5c0 -60.667 -17 -109 -51 -145s-81 -54 -141 -54z" />
    <glyph glyph-name="p" unicode="p" horiz-adv-x="431" 
d="M119 382l0.00292969 -61.001c8 12 17.333 23 28 33c9.33301 8 20.166 15.5 32.499 22.5s26.833 10.5 43.5 10.5c24 0 47.167 -4.16699 69.5 -12.5s42.166 -20.833 59.499 -37.5s31.166 -37.667 41.499 -63s15.5 -55 15.5 -89c0 -31.333 -5.83301 -58.833 -17.5 -82.5
s-26.334 -43.5 -44.001 -59.5s-36.667 -28 -57 -36s-39.166 -12 -56.499 -12c-20 0 -37.333 3.33301 -52 10s-26.667 14.334 -36 23.001c-11.333 9.33301 -20.333 20.333 -27 33v-220h-82v541h82zM119.003 110.999c8.66699 -8.66699 18.667 -16.3369 30 -23.0039
c9.33301 -6 20.666 -11.333 33.999 -16s28.333 -7 45 -7c8 0 17.667 2.33301 29 7s22.166 11.834 32.499 21.501s19 22 26 37s10.5 33.167 10.5 54.5c0 26.667 -3.66699 48.334 -11 65.001s-16.166 29.834 -26.499 39.501s-21.5 16.334 -33.5 20.001s-23 5.5 -33 5.5
c-14.667 0 -28.167 -2.5 -40.5 -7.5s-23.166 -10.167 -32.499 -15.5c-11.333 -7.33301 -21.333 -15 -30 -23v-158z" />
    <glyph glyph-name="q" unicode="q" horiz-adv-x="431" 
d="M312 382l81.998 0.000976562v-541h-82v220c-6.66699 -12.667 -15.334 -23.667 -26.001 -33c-9.33301 -8.66699 -20.833 -16.334 -34.5 -23.001s-30.5 -10 -50.5 -10c-19.333 0 -39.666 4 -60.999 12s-40.666 20 -57.999 36s-31.666 35.833 -42.999 59.5
s-17 51.167 -17 82.5c0 34 5.16699 63.667 15.5 89s23.5 46.333 39.5 63s34.167 29.167 54.5 37.5s40.5 12.5 60.5 12.5s37.5 -3.5 52.5 -10.5s27.5 -14.5 37.5 -22.5c12 -10 22 -21 30 -33v61zM311.998 269.001c-9.33301 8 -19.6611 15.6699 -30.9941 23.0029
c-9.33301 5.33301 -20.333 10.5 -33 15.5s-26.334 7.5 -41.001 7.5c-8.66699 0 -18.834 -1.83301 -30.501 -5.5s-22.834 -10.334 -33.501 -20.001s-19.834 -22.834 -27.501 -39.501s-11.5 -38.334 -11.5 -65.001c0 -21.333 3.5 -39.5 10.5 -54.5s15.667 -27.333 26 -37
s21.166 -16.834 32.499 -21.501s21.333 -7 30 -7c15.333 0 29.833 2.33301 43.5 7s25.167 10 34.5 16c11.333 6.66699 21.666 14.334 30.999 23.001v158z" />
    <glyph glyph-name="r" unicode="r" horiz-adv-x="253" 
d="M246 296c-4.66699 1.33301 -9.33105 3.00098 -13.998 5.00098c-4 1.33301 -8.33301 2.5 -13 3.5s-9.66699 1.5 -15 1.5c-10 0 -20.167 -4.33301 -30.5 -13s-19.5 -18.334 -27.5 -29.001c-9.33301 -12 -18.333 -25.667 -27 -41v-223h-82v382h82v-104
c6 20 13.333 38.333 22 55c7.33301 13.333 16.666 25.833 27.999 37.5s25 17.5 41 17.5c4 0 8.16699 -0.5 12.5 -1.5s8.16602 -2.16699 11.499 -3.5l12 -4v-83z" />
    <glyph glyph-name="s" unicode="s" horiz-adv-x="341" 
d="M284 291c-9.33301 5.33301 -20 10.3301 -32 14.9971c-10 3.33301 -22 6.66602 -36 9.99902s-29.333 5 -46 5c-14 0 -26 -4.33301 -36 -13s-15 -17.667 -15 -27c0 -10.667 4.5 -18.667 13.5 -24s20.5 -10.166 34.5 -14.499l44.5 -13.5
c15.667 -4.66699 30.5 -11.667 44.5 -21s25.5 -21.666 34.5 -36.999s13.5 -35.333 13.5 -60c0 -33.333 -13 -61.666 -39 -84.999s-64.333 -35 -115 -35c-15.333 0 -29.666 1.5 -42.999 4.5s-25.333 6.16699 -36 9.5c-12 4 -23.333 9 -34 15v71c9.33301 -6 20 -11 32 -15
c10 -4 21.5 -7.5 34.5 -10.5s27.167 -4.5 42.5 -4.5c27.333 0 46.833 4.5 58.5 13.5s17.5 21.167 17.5 36.5c0 13.333 -4.5 23.833 -13.5 31.5s-20.5 14.167 -34.5 19.5s-28.833 10.333 -44.5 15s-30.5 11.167 -44.5 19.5s-25.5 19 -34.5 32s-13.5 30.5 -13.5 52.5
c0 17.333 4.33301 32.833 13 46.5s19.5 25.334 32.5 35.001s27.333 17 43 22s30.5 7.5 44.5 7.5c20 0 37.167 -1.66699 51.5 -5s26.166 -7 35.499 -11c10.667 -4.66699 19.667 -10 27 -16v-69z" />
    <glyph glyph-name="t" unicode="t" horiz-adv-x="261" 
d="M7 302l-0.00292969 72.0039h65l-1 168h83v-168h100v-72h-100v-170c0 -14 1.5 -25.333 4.5 -34s6.83301 -15.334 11.5 -20.001s10 -7.83398 16 -9.50098s12 -2.5 18 -2.5c7.33301 0 13.833 0.666992 19.5 2s10.834 2.66602 15.501 3.99902c5.33301 2 10.333 4.33301 15 7
v-74c-3.33301 -2 -8 -3.66699 -14 -5c-5.33301 -1.33301 -12.166 -2.33301 -20.499 -3s-18.166 -1 -29.499 -1c-41.333 0 -71.5 12.667 -90.5 38s-28.5 57.666 -28.5 96.999v171h-64z" />
    <glyph glyph-name="u" unicode="u" horiz-adv-x="401" 
d="M37 382l82 -0.00292969v-240c0 -24 7.83301 -41.5 23.5 -52.5s32.5 -16.5 50.5 -16.5c13.333 0 25.333 2.33301 36 7s20 10 28 16c9.33301 6.66699 17.666 14.334 24.999 23.001v263h82v-380h-82v69c-4.66699 -14 -11.667 -26.333 -21 -37
c-8 -9.33301 -18.667 -17.666 -32 -24.999s-29.666 -11 -48.999 -11c-24 0 -45 3.83301 -63 11.5s-33 18 -45 31s-20.833 27.833 -26.5 44.5s-8.5 34.334 -8.5 53.001v244z" />
    <glyph glyph-name="v" unicode="v" horiz-adv-x="383" 
d="M292 382h84l-135 -382h-89l-145 382h94l95 -265z" />
    <glyph glyph-name="w" unicode="w" horiz-adv-x="555" 
d="M459 382h89l-119 -382h-80l-71 247l-79 -247h-85l-107 382h93l66 -256l83 256h61l74 -256z" />
    <glyph glyph-name="x" unicode="x" horiz-adv-x="365" 
d="M265 382h93l-129 -196l129 -186h-93l-83 118l-83 -118h-92l129 191l-129 191h93l82 -123z" />
    <glyph glyph-name="y" unicode="y" horiz-adv-x="406" 
d="M38 -84c5.33301 -3.33301 10.6699 -6.33008 16.0029 -8.99707c4.66699 -2.66699 9.66699 -4.83398 15 -6.50098s10.666 -2.5 15.999 -2.5c27.333 0 47.666 17.667 60.999 53l23 60l-160 371h89l115 -260l97 260h89l-175 -444c-7.33301 -18 -15 -34 -23 -48
s-17.167 -25.833 -27.5 -35.5s-22.333 -16.834 -36 -21.501s-29.834 -7 -48.501 -7c-13.333 0 -25 1.16699 -35 3.5s-18.333 5.16602 -25 8.49902c-7.33301 3.33301 -14 7.33301 -20 12z" />
    <glyph glyph-name="z" unicode="z" horiz-adv-x="359" 
d="M352 382v-36l-191 -275h188v-71h-312v33l192 278h-173v71h296z" />
    <glyph glyph-name="braceleft" unicode="{" horiz-adv-x="236" 
d="M229 -174c-50 0 -86.668 11.834 -110.001 35.501s-35 56.167 -35 97.5v119c0 27.333 -5.33301 46 -16 56s-26 16.333 -46 19v68c20 2 35.333 7.5 46 16.5s16 27.167 16 54.5v117c0 41.333 10.5 74 31.5 98s58.833 37.667 113.5 41v-76
c-6.66699 0 -13.5 -1.16699 -20.5 -3.5s-13.5 -6 -19.5 -11s-11 -11.5 -15 -19.5s-6 -18.333 -6 -31v-120c0 -26.667 -7.16699 -48.834 -21.5 -66.501s-33.166 -29.834 -56.499 -36.501c22 -5.33301 40.5 -16.833 55.5 -34.5s22.5 -40.5 22.5 -68.5v-115
c0 -14 2 -25.333 6 -34s9 -15.167 15 -19.5s12.667 -7.16602 20 -8.49902s14 -2 20 -2v-76z" />
    <glyph glyph-name="bar" unicode="|" horiz-adv-x="157" 
d="M37 -125v721h83v-721h-83z" />
    <glyph glyph-name="braceright" unicode="}" horiz-adv-x="236" 
d="M7 -98c6 0 12.666 0.666016 19.999 1.99902s14 4.16602 20 8.49902s11 10.833 15 19.5s6 20 6 34v115c0 28 7.5 50.833 22.5 68.5s33.5 29.167 55.5 34.5c-23.333 6.66699 -42.166 18.834 -56.499 36.501s-21.5 39.834 -21.5 66.501v120c0 12.667 -2 23 -6 31
s-9 14.5 -15 19.5s-12.5 8.66699 -19.5 11s-13.833 3.5 -20.5 3.5v76c54.667 -3.33301 92.5 -17 113.5 -41s31.5 -56.667 31.5 -98v-117c0 -27.333 5.33301 -45.5 16 -54.5s26 -14.5 46 -16.5v-68c-20 -2.66699 -35.333 -9 -46 -19s-16 -28.667 -16 -56v-119
c0 -41.333 -11.667 -73.833 -35 -97.5s-60 -35.5 -110 -35.5v76z" />
    <glyph glyph-name="asciitilde" unicode="~" horiz-adv-x="400" 
d="M363 281c-0.666992 -16 -2.83301 -31.001 -6.5 -45.001s-9.33398 -26.333 -17.001 -37s-17.334 -19 -29.001 -25s-25.5 -9 -41.5 -9s-30.333 2.66699 -43 8s-24.167 11 -34.5 17l-29 17c-9 5.33301 -17.833 8 -26.5 8c-11.333 0 -19.333 -3.83301 -24 -11.5
s-7 -20.5 -7 -38.5h-68c0 13.333 1.83301 27 5.5 41s9.16699 26.5 16.5 37.5s17 20 29 27s26.667 10.5 44 10.5c14.667 0 27.834 -2.66699 39.501 -8s22.5 -11.166 32.5 -17.499s19.833 -12.166 29.5 -17.499s19.834 -8 30.501 -8s18 4.16699 22 12.5
s6.66699 21.166 8 38.499h69z" />
    <glyph glyph-name="copyright" unicode="&#xa9;" horiz-adv-x="657" 
d="M78 241c0 -34.667 6.5 -67.167 19.5 -97.5s30.833 -56.666 53.5 -78.999s49.334 -40 80.001 -53s63.334 -19.5 98.001 -19.5s67.334 6.5 98.001 19.5s57.334 30.667 80.001 53s40.5 48.666 53.5 78.999s19.5 62.833 19.5 97.5s-6.5 67.334 -19.5 98.001
s-30.833 57.334 -53.5 80.001s-49.334 40.5 -80.001 53.5s-63.334 19.5 -98.001 19.5s-67.334 -6.5 -98.001 -19.5s-57.334 -30.833 -80.001 -53.5s-40.5 -49.334 -53.5 -80.001s-19.5 -63.334 -19.5 -98.001zM37 242c0 40.667 7.66699 78.667 23 114
s36.166 66.166 62.499 92.499s57.166 47 92.499 62s73.333 22.5 114 22.5s78.667 -7.5 114 -22.5s66.166 -35.667 92.499 -62s47 -57.166 62 -92.499s22.5 -73.333 22.5 -114s-7.5 -78.667 -22.5 -114s-35.667 -66 -62 -92s-57.166 -46.5 -92.499 -61.5
s-73.333 -22.5 -114 -22.5s-78.667 7.5 -114 22.5s-66.166 35.5 -92.499 61.5s-47.166 56.667 -62.499 92s-23 73.333 -23 114zM433 73c-13.333 -7.33301 -29.002 -12.667 -47.002 -16s-36 -5 -54 -5c-52.667 0 -94.834 16.667 -126.501 50s-47.5 78.333 -47.5 135
c0 28.667 4.33301 54.5 13 77.5s20.834 42.667 36.501 59s34.334 28.833 56.001 37.5s45.834 13 72.501 13c15.333 0 32.5 -1.16699 51.5 -3.5s34.5 -5.83301 46.5 -10.5l-15 -31c-12 5.33301 -25.333 9 -40 11s-28.667 3 -42 3c-22 0 -41.667 -4.16699 -59 -12.5
s-32 -19.666 -44 -33.999s-21.167 -31 -27.5 -50s-9.5 -38.833 -9.5 -59.5c0 -44 12.333 -80.5 37 -109.5s59 -43.5 103 -43.5c17.333 0 32 1.66699 44 5s24.667 8.66602 38 15.999z" />
    <glyph glyph-name="registered" unicode="&#xae;" horiz-adv-x="657" 
d="M78 241c0 -35.333 6.5 -68.166 19.5 -98.499s30.833 -56.666 53.5 -78.999s49.334 -40 80.001 -53s63.334 -19.5 98.001 -19.5s67.334 6.5 98.001 19.5s57.334 30.667 80.001 53s40.5 48.666 53.5 78.999s19.5 63.166 19.5 98.499c0 34.667 -6.5 67.334 -19.5 98.001
s-30.833 57.334 -53.5 80.001s-49.334 40.5 -80.001 53.5s-63.334 19.5 -98.001 19.5s-67.334 -6.5 -98.001 -19.5s-57.334 -30.833 -80.001 -53.5s-40.5 -49.334 -53.5 -80.001s-19.5 -63.334 -19.5 -98.001zM37 242c0 40.667 7.66699 78.667 23 114
s36.166 66.166 62.499 92.499s57.166 47 92.499 62s73.333 22.5 114 22.5s78.667 -7.5 114 -22.5s66.166 -35.667 92.499 -62s47 -57.166 62 -92.499s22.5 -73.333 22.5 -114s-7.5 -78.667 -22.5 -114s-35.667 -66 -62 -92s-57.166 -46.5 -92.499 -61.5
s-73.333 -22.5 -114 -22.5s-78.667 7.5 -114 22.5s-66.166 35.5 -92.499 61.5s-47.166 56.667 -62.499 92s-23 73.333 -23 114zM481 67l-47.002 0.000976562l-61 102c-10.667 17.333 -23.667 30.833 -39 40.5s-27.666 14.5 -36.999 14.5h-36v-157h-39v362h107
c14.667 0 28.667 -2 42 -6s25 -10 35 -18s18 -18 24 -30s9 -26.333 9 -43c0 -16 -2.33301 -29.667 -7 -41s-11 -20.833 -19 -28.5s-17.167 -13.667 -27.5 -18s-21.166 -7.5 -32.499 -9.5c12 -6.66699 23.5 -15.334 34.5 -26.001s19.167 -20.667 24.5 -30zM260.998 396.001
v-139.998h48c12 0 23.5 1.5 34.5 4.5s20.667 7.66699 29 14s15.166 14.166 20.499 23.499s8 20.666 8 33.999c0 20 -7.16699 35.667 -21.5 47s-34.166 17 -59.499 17h-59z" />
    <glyph glyph-name="onequarter" unicode="&#xbc;" horiz-adv-x="741" 
d="M641 318h44v-174h33v-42h-33v-64h-48v64h-122v38zM572 144h65v94zM151 618l-0.000976562 -279.999h-47v216c-6 -3.33301 -14.667 -7.33301 -26 -12s-22.666 -8.33398 -33.999 -11.001v41c8.66699 3.33301 16.834 7.5 24.501 12.5s14.5 10.167 20.5 15.5
c7.33301 6 13.666 12 18.999 18h43zM237.999 0.000976562h-84l368 624h85z" />
    <glyph glyph-name="onehalf" unicode="&#xbd;" horiz-adv-x="752" 
d="M662 246c0 15.333 -4.16602 25.6621 -12.499 30.9951s-17.833 8 -28.5 8c-11.333 0 -24.333 -2.16699 -39 -6.5s-27 -10.833 -37 -19.5v41c8 8 18.667 14.833 32 20.5s28 8.5 44 8.5c26.667 0 48.167 -7.33301 64.5 -22s24.5 -33.667 24.5 -57
c0 -21.333 -5.5 -39.666 -16.5 -54.999s-23.667 -29.166 -38 -41.499l-42 -35.5c-13.667 -11.333 -22.834 -24 -27.501 -38h135v-42h-187v34c0 16.667 6.66699 32.334 20 47.001s28 28.834 44 42.501s30.667 27.334 44 41.001s20 28.167 20 43.5zM151.001 617.996
l-0.000976562 -279.999h-47v216c-6 -3.33301 -14.667 -7.33301 -26 -12s-22.666 -8.33398 -33.999 -11.001v41c8.66699 3.33301 16.834 7.5 24.501 12.5s14.5 10.167 20.5 15.5c7.33301 6 13.666 12 18.999 18h43zM238 -0.00292969h-84l368 624h85z" />
    <glyph glyph-name="threequarters" unicode="&#xbe;" horiz-adv-x="751" 
d="M651 318h44v-174h33v-42h-33v-64h-48v64h-122v38zM582 144h65v94zM210 422c0 -25.333 -9.16992 -45.667 -27.5029 -61s-44.166 -23 -77.499 -23c-13.333 0 -26.166 2 -38.499 6s-22.166 8.33301 -29.499 13v43c9.33301 -7.33301 20 -12.666 32 -15.999s24 -5 36 -5
c6 0 12.333 0.666992 19 2s13 3.5 19 6.5s10.833 7.16699 14.5 12.5s5.5 11.666 5.5 18.999c0 17.333 -7.33301 29.5 -22 36.5s-40.334 10.5 -77.001 10.5v41c16.667 0 31.334 1.33301 44.001 4c11.333 2.66699 21.5 6.83398 30.5 12.501s13.5 14.167 13.5 25.5
c0 15.333 -4 25.333 -12 30s-16.667 7 -26 7c-27.333 0 -49.333 -6 -66 -18v40c8.66699 5.33301 18.5 10 29.5 14s23.167 6 36.5 6c10 0 20.167 -1.66699 30.5 -5s19.5 -8 27.5 -14s14.5 -13.333 19.5 -22s7.5 -18.334 7.5 -29.001c0 -21.333 -6.16699 -37.333 -18.5 -48
s-27.5 -17.667 -45.5 -21c18 -2 35 -8.5 51 -19.5s24 -26.833 24 -47.5zM247.997 -0.000976562h-84l368 624h85z" />
    <glyph glyph-name="uni0E01" unicode="&#xe01;" horiz-adv-x="458" 
d="M333 0l-0.00195312 290.995c0 18.667 -3.66699 34.167 -11 46.5s-16.833 22 -28.5 29s-24.5 11.833 -38.5 14.5s-27.333 4 -40 4c-17.333 0 -32.166 -2.33301 -44.499 -7s-22.5 -9.66699 -30.5 -15c-9.33301 -6.66699 -17.333 -14 -24 -22l61 -50
c-5.33301 -5.33301 -10 -12 -14 -20c-3.33301 -7.33301 -6.5 -16.166 -9.5 -26.499s-4.5 -23.166 -4.5 -38.499v-206h-86v211c0 12.667 0.833008 23.834 2.5 33.501s3.83398 18.167 6.50098 25.5c2.66699 8 5.66699 15 9 21l-30 25l-20 16.5c-6 5 -9 7.83301 -9 8.5
c12 22.667 27 42.667 45 60c15.333 15.333 34.833 29.333 58.5 42s52.5 19 86.5 19c26 0 51.667 -3.16699 77 -9.5s47.666 -15.833 66.999 -28.5s35 -28.5 47 -47.5s18 -40.833 18 -65.5v-240c0 -9.33301 -2.66699 -18.166 -8 -26.499s-11.333 -15.833 -18 -22.5
c-7.33301 -7.33301 -15.666 -14.666 -24.999 -21.999h-37z" />
    <glyph glyph-name="uni0E02" unicode="&#xe02;" horiz-adv-x="386" 
d="M139 151c0 -25.333 4.33789 -45.832 13.0049 -61.499s24.334 -23.5 47.001 -23.5c23.333 0 39.666 8.66699 48.999 26s14 37 14 59v301h87v-301c0 -20 -2.33301 -39.667 -7 -59s-12.834 -36.5 -24.501 -51.5s-27.667 -27 -48 -36s-46.5 -13.5 -78.5 -13.5
c-26.667 0 -48.834 4.5 -66.501 13.5s-31.834 21 -42.501 36s-18.167 32.167 -22.5 51.5s-6.5 39 -6.5 59v40c0 28 5.33301 51.667 16 71s20.667 35.666 30 48.999l14.5 20c5.66699 8 8.5 14.667 8.5 20c0 7.33301 -3 13.5 -9 18.5s-15.333 7.5 -28 7.5h-63v75h63
c42 0 73.167 -9.33301 93.5 -28s30.5 -43 30.5 -73c0 -16.667 -3.66699 -32 -11 -46s-16 -26 -26 -36c-2.66699 -2.66699 -5.83398 -6.66699 -9.50098 -12s-7.33398 -11.5 -11.001 -18.5s-6.66699 -14.667 -9 -23s-3.5 -16.5 -3.5 -24.5v-40z" />
    <glyph glyph-name="uni0E03" unicode="&#xe03;" horiz-adv-x="386" 
d="M139 151c0 -25.333 4.33105 -45.833 12.998 -61.5s24.667 -23.5 48 -23.5c11.333 0 20.833 2.5 28.5 7.5s14 11.667 19 20s8.66699 17.666 11 27.999s3.5 21.166 3.5 32.499v298h87v-294c0 -22 -2.5 -43 -7.5 -63s-13.167 -37.667 -24.5 -53s-26.5 -27.666 -45.5 -36.999
s-42.833 -14 -71.5 -14c-29.333 0 -53.5 4.5 -72.5 13.5s-34 21 -45 36s-18.833 32.167 -23.5 51.5s-7 39 -7 59v43c0 24 4.5 45.167 13.5 63.5s20.167 35.833 33.5 52.5c4.66699 6 11.334 13.333 20.001 22s13 18 13 28c0 7.33301 -2.83301 12.666 -8.5 15.999
s-12.167 3.33301 -19.5 0c-3.33301 -2 -7.16602 -4.83301 -11.499 -8.5s-8.16602 -7.16699 -11.499 -10.5c-4 -4 -8 -8.33301 -12 -13c-4.66699 6 -9.33398 11.333 -14.001 16c-4.66699 4 -9.66699 7.83301 -15 11.5s-11.333 5.5 -18 5.5v75c6 0 12 -2.16699 18 -6.5
s11.333 -9.16602 16 -14.499c5.33301 -6 10.666 -12.667 15.999 -20c5.33301 7.33301 11.666 14 18.999 20c6 5.33301 13.167 10.166 21.5 14.499s17.5 6.5 27.5 6.5c8 0 16.5 -1.83301 25.5 -5.5s17.333 -9.16699 25 -16.5s13.834 -16.666 18.501 -27.999
s7 -24.666 7 -39.999c0 -20 -3.83301 -37.167 -11.5 -51.5s-16.5 -26.5 -26.5 -36.5c-2.66699 -2.66699 -6.16699 -6.5 -10.5 -11.5s-8.66602 -11 -12.999 -18s-8 -15 -11 -24s-4.5 -18.5 -4.5 -28.5v-41z" />
    <glyph glyph-name="uni0E04" unicode="&#xe04;" horiz-adv-x="461" 
d="M124 210c9.33301 10 20 18.998 32 26.998c10 6.66699 21.667 12.834 35 18.501s27.666 8.5 42.999 8.5v-86c-18 0 -33.833 -2.33301 -47.5 -7s-25.167 -9.66699 -34.5 -15c-11.333 -6.66699 -20.666 -13.667 -27.999 -21v-135h-87v311c0 22.667 5.33301 43.334 16 62.001
s25 34.5 43 47.5s38.5 23.167 61.5 30.5s47.167 11 72.5 11c24.667 0 48.667 -3.5 72 -10.5s44 -17 62 -30s32.5 -28.833 43.5 -47.5s16.5 -39.667 16.5 -63v-311h-87v311c0 21.333 -10.333 39 -31 53s-46 21 -76 21s-55.167 -6.83301 -75.5 -20.5s-30.5 -31.5 -30.5 -53.5
v-101z" />
    <glyph glyph-name="uni0E05" unicode="&#xe05;" horiz-adv-x="461" 
d="M37 0v310.996c0 17.333 3.33301 35 10 53s15.5 34.167 26.5 48.5s23.833 26 38.5 35s30 13.5 46 13.5c8.66699 0 17.167 -3.16699 25.5 -9.5s16.166 -13.166 23.499 -20.499c8 -8.66699 16 -18.667 24 -30c6.66699 11.333 13.667 21.333 21 30
c6.66699 7.33301 14.334 14.333 23.001 21s17.667 10 27 10c16.667 0 32.5 -4.66699 47.5 -14s28 -21.166 39 -35.499s19.667 -30.5 26 -48.5s9.5 -35.667 9.5 -53v-311h-87v311c0 20 -4.33301 37.333 -13 52s-19.667 22 -33 22c-5.33301 0 -11.5 -3.33301 -18.5 -10
s-13.5 -14 -19.5 -22c-7.33301 -9.33301 -14.666 -20 -21.999 -32l-24 32c-6.66699 8 -13.334 15.333 -20.001 22s-12.667 10 -18 10c-12.667 0 -23.334 -7.33301 -32.001 -22s-13 -32 -13 -52v-101c8.66699 10 19 19 31 27c10 6.66699 21.667 12.834 35 18.501
s28 8.5 44 8.5v-86c-18 0 -33.833 -2.16699 -47.5 -6.5s-25.167 -9.16602 -34.5 -14.499c-11.333 -6.66699 -20.666 -13.667 -27.999 -21v-136h-87z" />
    <glyph glyph-name="uni0E06" unicode="&#xe06;" horiz-adv-x="466" 
d="M139 127c8.66699 -10 18.6699 -18.668 30.0029 -26.001c9.33301 -6.66699 20.666 -12.5 33.999 -17.5s28.666 -7.5 45.999 -7.5c28 0 50.5 7.5 67.5 22.5s25.5 42.5 25.5 82.5v271h87v-295c0 -22.667 -3.5 -44.167 -10.5 -64.5s-16.833 -38 -29.5 -53
s-28.167 -26.833 -46.5 -35.5s-38.833 -13 -61.5 -13c-24.667 0 -45.834 4.16699 -63.501 12.5s-32.167 17.5 -43.5 27.5c-13.333 12 -25 25.333 -35 40v-71h-87v207c0 22.667 4.16699 40.667 12.5 54s17.5 24.833 27.5 34.5s19.167 19 27.5 28s12.5 20.167 12.5 33.5
c0 6.66699 -1.66699 12.167 -5 16.5s-8.66602 6.5 -15.999 6.5c-4 0 -8.33301 -1.83301 -13 -5.5s-9.33398 -7.83398 -14.001 -12.501c-5.33301 -5.33301 -10.333 -11.333 -15 -18c-5.33301 6 -10.666 11.333 -15.999 16c-4.66699 4 -9.66699 7.83301 -15 11.5
s-10.666 5.5 -15.999 5.5v75c6 0 11.833 -2.16699 17.5 -6.5s11.167 -9.16602 16.5 -14.499c5.33301 -6 10.666 -12.667 15.999 -20c5.33301 8 11.666 15 18.999 21c6 5.33301 13.167 10 21.5 14s17.5 6 27.5 6c22.667 -0.666992 41.5 -9.66699 56.5 -27
s22.5 -38.666 22.5 -63.999c0 -22.667 -4.16699 -40.5 -12.5 -53.5s-17.5 -24.667 -27.5 -35s-19.167 -20.833 -27.5 -31.5s-12.5 -24.667 -12.5 -42v-72z" />
    <glyph glyph-name="uni0E07" unicode="&#xe07;" horiz-adv-x="395" 
d="M23 309h88.001l59 -232c12 0 24.667 3 38 9s25.833 15.333 37.5 28s21.334 28.167 29.001 46.5s11.5 40.166 11.5 65.499c0 24.667 -4 46.334 -12 65.001s-19 34.334 -33 47.001s-30 22 -48 28s-37 9 -57 9v77c30 0 59.167 -4.66699 87.5 -14s53.666 -23.5 75.999 -42.5
s40.166 -42.5 53.499 -70.5s20 -61 20 -99c0 -32.667 -6.16699 -62.834 -18.5 -90.501s-28.333 -51.5 -48 -71.5s-41.667 -35.667 -66 -47s-48.833 -17 -73.5 -17h-69z" />
    <glyph glyph-name="uni0E08" unicode="&#xe08;" horiz-adv-x="443" 
d="M156 0l-39.9961 158.001c-2 5.33301 -4.5 8.16602 -7.5 8.49902s-7.16699 0.5 -12.5 0.5h-20v77h40c7.33301 0 14.666 -0.333008 21.999 -1s14.5 -2.66699 21.5 -6s13.667 -8.66602 20 -15.999s12.166 -17.333 17.499 -30l30 -114c14.667 0 28.5 4.33301 41.5 13
s24.167 20.167 33.5 34.5s16.833 31.166 22.5 50.499s8.5 39.666 8.5 60.999c0 28.667 -4.66699 52.5 -14 71.5s-20.833 34.333 -34.5 46s-28.167 19.834 -43.5 24.501s-28.666 7 -39.999 7c-28 0 -51.333 -4.66699 -70 -14s-34.334 -19.666 -47.001 -30.999
c-14.667 -12.667 -26.667 -27.334 -36 -44.001l-30 73c9.33301 17.333 22.666 32.666 39.999 45.999c14.667 11.333 33.5 22 56.5 32s51.833 15 86.5 15c32.667 0 62.5 -6.33301 89.5 -19s50.167 -29.5 69.5 -50.5s34.333 -45.167 45 -72.5s16 -55.333 16 -84
c0 -31.333 -4.33301 -61.166 -13 -89.499s-21.834 -53.333 -39.501 -75s-40 -39 -67 -52s-58.833 -19.5 -95.5 -19.5h-50z" />
    <glyph glyph-name="uni0E09" unicode="&#xe09;" horiz-adv-x="456" 
d="M64 166c0 5.33301 -0.667969 10.166 -2.00098 14.499s-5 6.5 -11 6.5h-29v77h57c23.333 0 40.666 -7.5 51.999 -22.5s17 -35.833 17 -62.5v-28c0 -30 5.33301 -50 16 -60s26 -15 46 -15c17.333 0 33.333 2.66699 48 8s27.667 11.333 39 18
c12.667 7.33301 24.334 16 35.001 26v143c0 14.667 -1.83301 28.834 -5.5 42.501s-9.66699 25.834 -18 36.501s-19.333 19.167 -33 25.5s-30.5 9.5 -50.5 9.5s-39.167 -3 -57.5 -9s-34.166 -12.667 -47.499 -20c-16.667 -8 -31.667 -17.333 -45 -28l-30 72
c14.667 11.333 31 21.666 49 30.999c15.333 7.33301 34 14.333 56 21s47 10 75 10c62 0 109.833 -16.333 143.5 -49s50.5 -76.667 50.5 -132v-281h-87v71c-11.333 -14.667 -24 -28 -38 -40c-12.667 -10 -27.667 -19.167 -45 -27.5s-37.333 -12.5 -60 -12.5
c-40 0 -70.833 13.333 -92.5 40s-32.5 61.667 -32.5 105v30z" />
    <glyph glyph-name="uni0E0A" unicode="&#xe0a;" horiz-adv-x="406" 
d="M139 140c0 -22.667 4.8291 -40.668 14.4961 -54.001s27.167 -20 52.5 -20c16 0 29.167 3.16699 39.5 9.5s18.5 14.5 24.5 24.5s10.333 20.833 13 32.5s4 22.834 4 33.501c0 35.333 -5.66699 63.5 -17 84.5s-25.666 31.5 -42.999 31.5v77
c10.667 0 20.334 4.83301 29.001 14.5s16 22.834 22 39.501s10.667 36 14 58s5 45.667 5 71h87c0 -42.667 -4.16699 -78 -12.5 -106s-17.666 -50.5 -27.999 -67.5s-20.166 -29 -29.499 -36s-15 -10.833 -17 -11.5c1.33301 -0.666992 6 -3.33398 14 -8.00098
s16.667 -13 26 -25s17.833 -28 25.5 -48s11.5 -45.333 11.5 -76c0 -23.333 -3.16699 -45.5 -9.5 -66.5s-16.333 -39.333 -30 -55s-31.167 -28.167 -52.5 -37.5s-47 -14 -77 -14s-54.667 4.33301 -74 13s-34.833 20.167 -46.5 34.5s-19.834 30.666 -24.501 48.999
s-7 37.166 -7 56.499v47c0 26.667 5.16699 50.167 15.5 70.5s20.5 36.833 30.5 49.5l14.5 20c5.66699 8 8.5 14.667 8.5 20c0 7.33301 -4.33301 13.333 -13 18s-19.667 7 -33 7h-54v77h55c46.667 0 80.334 -9.5 101.001 -28.5s31 -43.5 31 -73.5
c0 -16.667 -3.33301 -31.667 -10 -45s-15 -25 -25 -35c-5.33301 -5.33301 -12.5 -14.666 -21.5 -27.999s-13.5 -30.666 -13.5 -51.999v-51z" />
    <glyph glyph-name="uni0E0B" unicode="&#xe0b;" horiz-adv-x="406" 
d="M212 -9c-32.667 0 -59.333 4.33594 -80 13.0029s-36.834 20.167 -48.501 34.5s-19.667 30.666 -24 48.999s-6.5 37.166 -6.5 56.499v47c0 22.667 4 43.834 12 63.501s18.667 37.5 32 53.5c2 2.66699 5 6 9 10l12 12.5c4 4.33301 7.33301 9 10 14s4 10.167 4 15.5
c0 6.66699 -2.66699 12 -8 16s-11.333 4.66699 -18 2c-3.33301 -1.33301 -7.33301 -4 -12 -8s-8.66699 -7.66699 -12 -11c-4.66699 -4.66699 -9 -9.33398 -13 -14.001c-6 6 -11.667 11.333 -17 16c-5.33301 4 -10.5 7.66699 -15.5 11s-9.83301 5 -14.5 5v75
c6 0 12 -2.16699 18 -6.5s11.333 -9.16602 16 -14.499c5.33301 -6 10.666 -12.667 15.999 -20c5.33301 7.33301 11.666 14 18.999 20c6 5.33301 13 10.166 21 14.499s17.333 6.5 28 6.5c23.333 0 41.666 -8.83301 54.999 -26.5s20 -39.167 20 -64.5
c0 -22.667 -4.66699 -40.667 -14 -54s-19.333 -26 -30 -38c-4 -5.33301 -10.333 -14.333 -19 -27s-13 -28.667 -13 -48v-54c0 -23.333 5.16699 -41.333 15.5 -54s29.5 -19 57.5 -19c14 0 25.833 3.16699 35.5 9.5s17.334 14.5 23.001 24.5s9.83398 20.667 12.501 32
s4 22 4 32c0 35.333 -5.66699 63.666 -17 84.999s-25.666 32 -42.999 32v77c11.333 0 21.333 4.83301 30 14.5s16 22.834 22 39.501s10.5 36 13.5 58s4.5 45.667 4.5 71h87c0 -42.667 -4.16699 -78 -12.5 -106s-17.666 -50.5 -27.999 -67.5s-20.166 -29 -29.499 -36
s-15 -10.833 -17 -11.5c1.33301 -0.666992 6 -3.33398 14 -8.00098s16.667 -12.834 26 -24.501s17.833 -27.5 25.5 -47.5s11.5 -45.333 11.5 -76c0 -21.333 -3 -42.333 -9 -63s-15.5 -39.167 -28.5 -55.5s-29.833 -29.666 -50.5 -39.999s-45.334 -15.5 -74.001 -15.5z" />
    <glyph glyph-name="uni0E0C" unicode="&#xe0c;" horiz-adv-x="718" 
d="M421 0l-87.999 -0.00390625v291c0 17.333 -3.33301 32 -10 44s-15.334 21.667 -26.001 29s-23.167 12.666 -37.5 15.999s-28.833 5 -43.5 5c-19.333 0 -35.166 -2.33301 -47.499 -7s-22.5 -9.66699 -30.5 -15c-9.33301 -6.66699 -16.666 -14 -21.999 -22l61 -50
c-5.33301 -5.33301 -10 -11.666 -14 -18.999c-3.33301 -6.66699 -6.5 -15.167 -9.5 -25.5s-4.5 -22.166 -4.5 -35.499v-114c0 -5.33301 0.666992 -9.83301 2 -13.5s4.66602 -5.83398 9.99902 -6.50098h30v-77h-43c-10 0 -20 0.833008 -30 2.5s-19.167 5.33398 -27.5 11.001
s-15 13.834 -20 24.501s-7.5 25 -7.5 43v130c0 12.667 0.833008 23.834 2.5 33.501s3.83398 18.167 6.50098 25.5c2.66699 8 5.66699 15 9 21l-30 25l-20 16.5c-6 5 -9 7.83301 -9 8.5c12 22.667 27 42.667 45 60c15.333 15.333 35.166 29.333 59.499 42
s54.166 19 89.499 19c24.667 0 49.167 -3.16699 73.5 -9.5s46.333 -15.833 66 -28.5s35.5 -28.5 47.5 -47.5s18 -40.833 18 -65.5v-185c6 -9.33301 13.667 -17.666 23 -24.999c8 -6.66699 18.333 -12.5 31 -17.5s27.667 -7.5 45 -7.5c28 0 47.167 7.5 57.5 22.5
s15.5 42.5 15.5 82.5v271h88v-301c0 -17.333 -2.5 -35.5 -7.5 -54.5s-12.667 -36.167 -23 -51.5s-23.5 -28 -39.5 -38s-35.333 -15 -58 -15c-25.333 0 -46.5 4 -63.5 12s-30.5 17 -40.5 27c-12 12 -21.333 25.333 -28 40v-71z" />
    <glyph glyph-name="uni0E0D" unicode="&#xe0d;" horiz-adv-x="720" 
d="M420 154c0 -30 7.49805 -50.4961 22.498 -61.4961s34.5 -16.5 58.5 -16.5c14.667 0 27.667 2.5 39 7.5s21 10.833 29 17.5c9.33301 7.33301 17.333 15.666 24 24.999v326h87l2 -379c0 -32.667 -5.66699 -61.5 -17 -86.5s-26 -46 -44 -63s-38 -30 -60 -39
s-43.333 -13.5 -64 -13.5c-23.333 0 -44 3.16699 -62 9.5s-33.333 13.166 -46 20.499c-14.667 8.66699 -27.667 18.667 -39 30l22 51c8 -9.33301 17.333 -17.666 28 -24.999c9.33301 -6.66699 20.5 -12.5 33.5 -17.5s28.167 -7.5 45.5 -7.5c32 0 58.833 11.5 80.5 34.5
s32.5 55.5 32.5 97.5v7c-7.33301 -15.333 -17 -29 -29 -41c-10 -10 -22.667 -19.167 -38 -27.5s-33.666 -12.5 -54.999 -12.5c-25.333 0 -46.666 4.5 -63.999 13.5s-31.5 21.167 -42.5 36.5s-19 33.166 -24 53.499s-7.5 41.833 -7.5 64.5v133
c0 19.333 -3.83301 35.166 -11.5 47.499s-17.334 22 -29.001 29s-24.334 11.667 -38.001 14s-26.167 3.5 -37.5 3.5c-19.333 0 -35.166 -2.33301 -47.499 -7s-22.5 -9.66699 -30.5 -15c-9.33301 -6.66699 -16.666 -14 -21.999 -22l61 -50
c-6 -5.33301 -11 -11.666 -15 -18.999c-3.33301 -6.66699 -6.5 -15 -9.5 -25s-4.5 -22 -4.5 -36v-114c0 -5.33301 0.333008 -9.83301 1 -13.5s3.66699 -5.83398 9 -6.50098h32v-77h-50c-28.667 0 -48.834 7.16699 -60.501 21.5s-17.5 34.166 -17.5 59.499v130
c0 12.667 0.833008 23.834 2.5 33.501s3.83398 18.167 6.50098 25.5c2.66699 8 5.66699 15 9 21c-11.333 9.33301 -21 17.666 -29 24.999l-20 16.5c-6 5 -9 7.83301 -9 8.5c12 22.667 27 42.667 45 60c15.333 15.333 35.333 29.333 60 42s54.334 19 89.001 19
c24.667 0 49.167 -3.16699 73.5 -9.5s46.166 -15.833 65.499 -28.5s35 -28.5 47 -47.5s18 -40.833 18 -65.5v-157z" />
    <glyph glyph-name="uni0E0E" unicode="&#xe0e;" horiz-adv-x="458" 
d="M284 -107c21.333 0 34.833 4.83008 40.5 14.4971s8.5 24.834 8.5 45.501v338c0 17.333 -3.33301 32 -10 44s-15.5 21.667 -26.5 29s-23.667 12.666 -38 15.999s-28.833 5 -43.5 5c-18 0 -33.167 -2.33301 -45.5 -7s-22.5 -9.66699 -30.5 -15
c-9.33301 -6.66699 -17 -14 -23 -22l61 -50c-5.33301 -4.66699 -9.66602 -10.667 -12.999 -18c-3.33301 -6.66699 -6.33301 -14.834 -9 -24.501s-4 -22.167 -4 -37.5v-130c0 -31.333 -6.83301 -52.666 -20.5 -63.999s-33.834 -17 -60.501 -17h-47v76h30
c5.33301 0.666992 8.33301 2.83398 9 6.50098s1 8.16699 1 13.5v115c0 12.667 0.833008 23.834 2.5 33.501s3.83398 18.167 6.50098 25.5c2.66699 8 5.66699 15 9 21l-30 25l-20 16.5c-6 5 -9 7.83301 -9 8.5c12 22.667 27 42.667 45 60c15.333 15.333 35 29.333 59 42
s53.333 19 88 19c22.667 0 46.167 -3.16699 70.5 -9.5s46.666 -15.833 66.999 -28.5s37 -28.5 50 -47.5s19.5 -40.833 19.5 -65.5v-384c0 -8 -1 -18.5 -3 -31.5s-7 -25.667 -15 -38s-19.833 -23.166 -35.5 -32.499s-37.167 -14 -64.5 -14c-15.333 0 -30 2.66699 -44 8
s-26 11.333 -36 18c-12 7.33301 -23 16.333 -33 27c-12.667 -10.667 -27.334 -19.667 -44.001 -27c-14 -6.66699 -30.667 -12.667 -50 -18s-40.333 -8 -63 -8v77c22.667 0 43.667 2.66699 63 8s36 11.666 50 18.999c16.667 8 31.334 17.333 44.001 28
c9.33301 -9.33301 19 -17.666 29 -24.999c8.66699 -6.66699 18.5 -12.5 29.5 -17.5s22.833 -7.5 35.5 -7.5z" />
    <glyph glyph-name="uni0E0F" unicode="&#xe0f;" horiz-adv-x="458" 
d="M151 81c0 -25.333 -5.66699 -45.166 -17 -59.499s-30.333 -21.5 -57 -21.5h-54v76h30c5.33301 0.666992 8.33301 2.66699 9 6s1 7.33301 1 12v118c0 12.667 0.833008 23.667 2.5 33s3.83398 17.666 6.50098 24.999s5.66699 14.333 9 21l-30 25l-20 16.5
c-6 5 -9 7.83301 -9 8.5c12 22.667 27 42.667 45 60c15.333 15.333 35.333 29.333 60 42s55 19 91 19c24 0 48 -3.16699 72 -9.5s45.833 -15.833 65.5 -28.5s35.5 -28.5 47.5 -47.5s18 -40.833 18 -65.5v-379c0 -7.33301 -0.833008 -17.666 -2.5 -30.999
s-6.33398 -26.666 -14.001 -39.999s-19.167 -25 -34.5 -35s-36.333 -15 -63 -15c-10.667 0 -20.667 2.66699 -30 8s-17.666 11.666 -24.999 18.999c-8.66699 7.33301 -17 16.333 -25 27l-36 -46l-36 45c-14.667 -10 -29 -18.667 -43 -26
c-12 -6.66699 -25.167 -12.667 -39.5 -18s-27.5 -8 -39.5 -8v76c16 0 31.333 2.83301 46 8.5s27.667 12.167 39 19.5c12.667 8 25 17.333 37 28l35 -46l37 52c0.666992 -1.33301 2.83398 -5.33301 6.50098 -12s8.66699 -13.667 15 -21s13.666 -14 21.999 -20
s17.166 -9 26.499 -9c12 0 21 3.16699 27 9.5s9 14.833 9 25.5v368c0 16.667 -3.16699 31 -9.5 43s-14.833 21.667 -25.5 29s-23 12.833 -37 16.5s-28.333 5.5 -43 5.5c-19.333 0 -35.333 -2.33301 -48 -7s-23 -9.66699 -31 -15c-9.33301 -6.66699 -17 -14 -23 -22l63 -50
c-5.33301 -4.66699 -10 -10.667 -14 -18c-3.33301 -6.66699 -6.5 -14.834 -9.5 -24.501s-4.5 -22.167 -4.5 -37.5v-130z" />
    <glyph glyph-name="uni0E10" unicode="&#xe10;" horiz-adv-x="442" 
d="M313 -43l87.001 0.00195312v-65c0 -6.66699 -1.16699 -15.667 -3.5 -27s-7.16602 -22.5 -14.499 -33.5s-17.833 -20.5 -31.5 -28.5s-31.834 -12 -54.501 -12c-15.333 0 -28 2.66699 -38 8s-18 11.333 -24 18c-7.33301 7.33301 -13 16.333 -17 27l-36 -44l-36 42
c-8.66699 -10 -18.667 -18.667 -30 -26c-9.33301 -6.66699 -21 -12.5 -35 -17.5s-29.667 -7.5 -47 -7.5v77c20.667 0 38 3.16699 52 9.5s25.667 13.166 35 20.499c10.667 8.66699 19 19 25 31l36 -51l36 51c0 -0.666992 2 -4.16699 6 -10.5s9.33301 -13.333 16 -21
s14 -14.5 22 -20.5s16.333 -9 25 -9c11.333 0 18.666 3.16699 21.999 9.5s5 12.166 5 17.499v62zM155.001 0.00195312l-39 153.999c-2 5.33301 -4 8.83301 -6 10.5s-5.66699 2.5 -11 2.5h-24v77h46c15.333 0 30 -3.16699 44 -9.5s24.667 -22.166 32 -47.499l30 -110
c14.667 0 28.334 4.33301 41.001 13s23.834 20.167 33.501 34.5s17.334 31.166 23.001 50.499s8.5 39.666 8.5 60.999c0 28.667 -4.66699 52.5 -14 71.5s-20.833 34.333 -34.5 46s-28.334 19.834 -44.001 24.501s-29.834 7 -42.501 7c-27.333 0 -50.333 -4.83301 -69 -14.5
s-34 -20.167 -46 -31.5c-14 -13.333 -25.333 -28.666 -34 -45.999l-32 75c8 17.333 20 33 36 47c13.333 11.333 31.666 22 54.999 32s53.333 15 90 15c14.667 0 29.334 -1.5 44.001 -4.5s28 -6.83301 40 -11.5c13.333 4.66699 25.166 12.167 35.499 22.5
s15.5 24.5 15.5 42.5h87c0 -27.333 -8 -50.333 -24 -69s-33.333 -30.667 -52 -36c25.333 -21.333 44.333 -47.5 57 -78.5s19 -61.5 19 -91.5c0 -38.667 -5.66699 -72.667 -17 -102s-26.833 -54 -46.5 -74s-42.667 -35 -69 -45s-54.5 -15 -84.5 -15h-48z" />
    <glyph glyph-name="uni0E11" unicode="&#xe11;" horiz-adv-x="461" 
d="M134 0h-86.998v117c0 36 4.5 67.333 13.5 94s18.667 49.834 29 69.501s20 36.167 29 49.5s13.5 25 13.5 35c0 5.33301 -2 10 -6 14s-9 6 -15 6c-4 0 -8.33301 -1.83301 -13 -5.5s-9.33398 -7.83398 -14.001 -12.501c-5.33301 -5.33301 -10.333 -11 -15 -17
c-4 6 -8.33301 11.333 -13 16c-4 4 -9 7.66699 -15 11s-12.333 5 -19 5v75c6 0 11.833 -2.16699 17.5 -6.5s11.167 -9.16602 16.5 -14.499c5.33301 -6 10.666 -12.667 15.999 -20c5.33301 7.33301 11.666 14 18.999 20c6 5.33301 13 10.166 21 14.499s16.667 6.5 26 6.5
c14.667 0 28.5 -5 41.5 -15s19.5 -27 19.5 -51c8 12.667 17.667 24.334 29 35.001c9.33301 9.33301 20.5 17.666 33.5 24.999s27.833 11 44.5 11c18.667 0 35.334 -5.16699 50.001 -15.5s27 -23.333 37 -39s17.667 -33 23 -52s8 -37.167 8 -54.5v-301h-87v271
c0 40 -5.66699 67.5 -17 82.5s-24.666 22.5 -39.999 22.5c-16.667 0 -31.834 -4.5 -45.501 -13.5s-26 -20.5 -37 -34.5s-20.333 -29.833 -28 -47.5s-14.167 -35.167 -19.5 -52.5s-9.33301 -33.833 -12 -49.5s-4 -28.167 -4 -37.5v-16v-125z" />
    <glyph glyph-name="uni0E12" unicode="&#xe12;" horiz-adv-x="716" 
d="M592 452l87.0029 -0.00292969v-301c0 -17.333 -2.16699 -35.5 -6.5 -54.5s-11.166 -36.333 -20.499 -52s-21.666 -28.5 -36.999 -38.5s-34.333 -15 -57 -15c-25.333 0 -46.666 4.16699 -63.999 12.5s-31.666 17.833 -42.999 28.5c-12.667 12 -23.334 25.667 -32.001 41
v-73h-87v319c0 19.333 -4.83301 35.166 -14.5 47.499s-20.167 18.5 -31.5 18.5c-5.33301 0 -11.5 -3.33301 -18.5 -10s-13.5 -14 -19.5 -22c-7.33301 -9.33301 -14.666 -20 -21.999 -32l-24 32c-6.66699 8 -13.334 15.333 -20.001 22s-12.667 10 -18 10
s-11.166 -2 -17.499 -6s-12.333 -11.5 -18 -22.5s-10.334 -26.5 -14.001 -46.5s-5.5 -46.333 -5.5 -79c0 -18 1.16699 -36.667 3.5 -56s7 -37.166 14 -53.499s16.833 -29.666 29.5 -39.999s29 -15.5 49 -15.5c7.33301 0 14 0.833008 20 2.5s11.667 3.5 17 5.5
c6 2.66699 11.667 5.66699 17 9v-76c-4 -2.66699 -8.66699 -5.33398 -14 -8.00098c-4.66699 -2 -10.334 -3.83301 -17.001 -5.5s-14.334 -2.5 -23.001 -2.5c-27.333 0 -52.333 5.66699 -75 17s-42 27.333 -58 48s-28.333 45.834 -37 75.501s-13 62.834 -13 99.501
c0 39.333 3.66699 73.5 11 102.5s17.166 53 29.499 72s26.666 33 42.999 42s33.166 13.5 50.499 13.5c6 0 13 -3.16699 21 -9.5s15.667 -13.166 23 -20.499c8 -8.66699 16.667 -18.667 26 -30c8 11.333 15.667 21.333 23 30c6.66699 7.33301 13.834 14.333 21.501 21
s15.167 10 22.5 10c17.333 0 33.666 -4.16699 48.999 -12.5s28.666 -19.333 39.999 -33s20.333 -29 27 -46s10 -34.167 10 -51.5v-193c7.33301 -10 16 -18.667 26 -26c8.66699 -6.66699 19 -12.5 31 -17.5s26.333 -7.5 43 -7.5c28.667 0 48 7.66699 58 23s15 43 15 83v271z
" />
    <glyph glyph-name="uni0E13" unicode="&#xe13;" horiz-adv-x="717" 
d="M420 181c0 -20 1.00098 -36.6699 3.00098 -50.0029s6 -24.166 12 -32.499s14.167 -14.166 24.5 -17.499s23.5 -5 39.5 -5c14.667 0 27.834 2.5 39.501 7.5s21.5 10.833 29.5 17.5c9.33301 7.33301 17.666 15.666 24.999 24.999v326h87v-452h-87v71
c-7.33301 -14.667 -17 -28 -29 -40c-10.667 -10 -24.334 -19.167 -41.001 -27.5s-37.667 -12.5 -63 -12.5c-24 0 -44.167 5 -60.5 15s-29.5 22.833 -39.5 38.5s-17 33 -21 52s-6 37.167 -6 54.5v140c0 18.667 -3.83301 34.167 -11.5 46.5s-17.5 22 -29.5 29
s-25 11.833 -39 14.5s-27.333 4 -40 4c-18 0 -33.333 -2.33301 -46 -7s-22.667 -9.66699 -30 -15c-8.66699 -6.66699 -15.667 -14 -21 -22l61 -50c-6 -5.33301 -11 -11.666 -15 -18.999c-3.33301 -6.66699 -6.5 -15.167 -9.5 -25.5s-4.5 -22.166 -4.5 -35.499v-114
c0 -5.33301 0.666992 -9.83301 2 -13.5s4.66602 -5.83398 9.99902 -6.50098h30v-77h-40c-10 0 -20.167 0.833008 -30.5 2.5s-19.833 5.33398 -28.5 11.001s-15.667 13.834 -21 24.501s-8 25 -8 43v130c0 12.667 0.833008 23.834 2.5 33.501s3.83398 18.167 6.50098 25.5
c2.66699 8 5.66699 15 9 21c-11.333 9.33301 -21 17.666 -29 24.999l-20 16.5c-6 5 -9 7.83301 -9 8.5c12 22.667 27 42.667 45 60c15.333 15.333 34.833 29.166 58.5 41.499s52.167 18.833 85.5 19.5c22.667 0 46.167 -2.83301 70.5 -8.5s46.833 -14.5 67.5 -26.5
s37.667 -27.5 51 -46.5s20 -42.167 20 -69.5v-130z" />
    <glyph glyph-name="uni0E14" unicode="&#xe14;" horiz-adv-x="456" 
d="M259 7c-3.33301 -2.66699 -7.66895 -5.33203 -13.002 -7.99902c-4.66699 -2 -10.667 -3.83301 -18 -5.5s-15.666 -2.5 -24.999 -2.5c-28 0 -53.167 6 -75.5 18s-41.333 28.5 -57 49.5s-27.667 46.167 -36 75.5s-12.5 61.666 -12.5 96.999c0 40 5.83301 74.5 17.5 103.5
s27.167 53 46.5 72s41 33 65 42s48.667 13.5 74 13.5c26 0 50.667 -3.16699 74 -9.5s44 -15.833 62 -28.5s32.167 -28.5 42.5 -47.5s15.5 -40.833 15.5 -65.5v-311h-87v302c0 16 -3.16699 29.167 -9.5 39.5s-14.666 18.833 -24.999 25.5s-21.833 11.334 -34.5 14.001
s-25.334 4 -38.001 4c-11.333 0 -23.666 -2.5 -36.999 -7.5s-25.833 -13.5 -37.5 -25.5s-21.5 -27.833 -29.5 -47.5s-12 -44.167 -12 -73.5c0 -19.333 1.33301 -38.833 4 -58.5s7.5 -37.334 14.5 -53.001s16.833 -28.5 29.5 -38.5s28.667 -15 48 -15
c9.33301 0 17.333 0.833008 24 2.5s12.334 3.5 17.001 5.5c5.33301 2.66699 9.66602 5.66699 12.999 9v-76z" />
    <glyph glyph-name="uni0E15" unicode="&#xe15;" horiz-adv-x="456" 
d="M259 7c-4 -2.66699 -8.99902 -5.33301 -14.999 -8c-5.33301 -2 -11.666 -3.83301 -18.999 -5.5s-15.666 -2.5 -24.999 -2.5c-27.333 0 -52 6 -74 18s-40.667 28.667 -56 50s-27.166 46.666 -35.499 75.999s-12.5 61.333 -12.5 96c0 39.333 3.66699 73.5 11 102.5
s17.166 53 29.499 72s26.666 33 42.999 42s33.166 13.5 50.499 13.5c7.33301 0 15 -3.16699 23 -9.5s15.667 -13.166 23 -20.499c8 -8.66699 16 -18.667 24 -30c6.66699 11.333 13.667 21.333 21 30c6.66699 7.33301 13.834 14.333 21.501 21s15.834 10 24.501 10
c16.667 0 32.5 -4.16699 47.5 -12.5s28.333 -19.333 40 -33s21 -29 28 -46s10.5 -34.167 10.5 -51.5v-319h-87v319c0 20 -5.5 36 -16.5 48s-21.167 18 -30.5 18c-4.66699 0 -10.334 -3.33301 -17.001 -10s-13 -14 -19 -22c-7.33301 -9.33301 -15 -20 -23 -32l-24 32
c-6.66699 8 -13.334 15.333 -20.001 22s-12.667 10 -18 10s-11.166 -2 -17.499 -6s-12.333 -11.667 -18 -23s-10.334 -27 -14.001 -47s-5.5 -46.333 -5.5 -79c0 -50 7.66699 -89.833 23 -119.5s39.666 -44.5 72.999 -44.5c7.33301 0 14 0.833008 20 2.5s11.667 3.5 17 5.5
c6 2.66699 11.667 5.66699 17 9v-76z" />
    <glyph glyph-name="uni0E16" unicode="&#xe16;" horiz-adv-x="458" 
d="M149 98c0 -5.33301 0.331055 -10.0049 0.998047 -14.0049s3.66699 -6 9 -6l32 -1v-77h-60c-20 0 -36.333 6.5 -49 19.5s-19 33.5 -19 61.5v130c0 12.667 0.833008 23.834 2.5 33.501s3.83398 18.167 6.50098 25.5c2.66699 8 5.66699 15 9 21l-30 25l-20 16.5
c-6 5 -9 7.83301 -9 8.5c12.667 22.667 28 42.667 46 60c15.333 15.333 35.166 29.333 59.499 42s53.833 19 88.5 19c24.667 0 49.167 -3.16699 73.5 -9.5s46.333 -15.833 66 -28.5s35.5 -28.5 47.5 -47.5s18 -40.833 18 -65.5v-240c0 -9.33301 -2.66699 -18.166 -8 -26.499
s-11.333 -15.833 -18 -22.5c-7.33301 -7.33301 -15.666 -14.666 -24.999 -21.999h-37v291c0 18 -3.33301 33 -10 45s-15.334 21.667 -26.001 29s-23.167 12.5 -37.5 15.5s-28.833 4.5 -43.5 4.5c-19.333 0 -35.166 -2.33301 -47.499 -7s-22.5 -9.66699 -30.5 -15
c-9.33301 -6.66699 -16.666 -14 -21.999 -22l61 -50c-5.33301 -5.33301 -10 -11.666 -14 -18.999c-3.33301 -6.66699 -6.5 -15.167 -9.5 -25.5s-4.5 -22.166 -4.5 -35.499v-113z" />
    <glyph glyph-name="uni0E17" unicode="&#xe17;" horiz-adv-x="451" 
d="M124 0l-87 0.000976562v452h87v-71c8.66699 14.667 19.667 28 33 40c11.333 10 25.833 19.333 43.5 28s39.167 13 64.5 13c22.667 0 43.167 -4.83301 61.5 -14.5s34 -22.167 47 -37.5s23 -32.5 30 -51.5s10.5 -38.167 10.5 -57.5v-301h-87v271
c0 14.667 -1.33301 28.5 -4 41.5s-7.66699 24.167 -15 33.5s-17.333 16.666 -30 21.999s-29 8 -49 8c-15.333 0 -29.333 -2.66699 -42 -8s-23.667 -11.333 -33 -18c-11.333 -7.33301 -21.333 -16 -30 -26v-324z" />
    <glyph glyph-name="uni0E18" unicode="&#xe18;" horiz-adv-x="421" 
d="M389 338c-14 8.66699 -30.0029 16.6621 -48.0029 23.9951c-15.333 6 -33.833 11.5 -55.5 16.5s-45.167 7.5 -70.5 7.5c-10 0 -21.167 -0.166992 -33.5 -0.5s-23.833 -2 -34.5 -5s-19.667 -7.66699 -27 -14s-11 -15.166 -11 -26.499c0 -14 7.16699 -23.5 21.5 -28.5
s32.166 -8.83301 53.499 -11.5l70 -9c25.333 -3.33301 48.666 -10.166 69.999 -20.499s39.166 -26 53.499 -47s21.5 -50.167 21.5 -87.5c0 -17.333 -3.33301 -34.666 -10 -51.999s-17.167 -32.833 -31.5 -46.5s-32.833 -24.834 -55.5 -33.501s-49.667 -13 -81 -13
c-17.333 0 -37 1.33301 -59 4s-42.667 9 -62 19s-35.666 25 -48.999 45s-20 47.333 -20 82v52h88v-52c0 -18.667 3.33301 -33.167 10 -43.5s14.834 -17.833 24.501 -22.5s20 -7.33398 31 -8.00098s21.167 -1 30.5 -1c12.667 0 24.834 1.66699 36.501 5s22 8 31 14
s16.167 13.333 21.5 22s8 18.667 8 30c0 24.667 -7.16699 42.834 -21.5 54.501s-32.166 20 -53.499 25s-44.666 8.66699 -69.999 11s-48.666 6.83301 -69.999 13.5s-39.166 17.334 -53.499 32.001s-21.5 37 -21.5 67c0 22.667 5.66699 41.834 17 57.501
s26.166 28.334 44.499 38.001s39 16.667 62 21s46.167 6.5 69.5 6.5c24 0 46.5 -2.5 67.5 -7.5s39.5 -10.167 55.5 -15.5c18 -6.66699 35 -14 51 -22v-80z" />
    <glyph glyph-name="uni0E19" unicode="&#xe19;" horiz-adv-x="451" 
d="M327 447h86.9971v-447h-87v71c-9.33301 -14.667 -20.666 -28 -33.999 -40c-11.333 -10 -26 -19.167 -44 -27.5s-39.667 -12.5 -65 -12.5c-22.667 0 -43 4.83301 -61 14.5s-33.333 22 -46 37s-22.5 32 -29.5 51s-10.5 38.167 -10.5 57.5v296h87v-271
c0 -20 2.83301 -36.5 8.5 -49.5s12.834 -23.167 21.501 -30.5s18.5 -12.5 29.5 -15.5s22.167 -4.5 33.5 -4.5c16.667 0 31.834 2.66699 45.501 8s25.167 11.333 34.5 18c11.333 7.33301 21.333 16 30 26v319z" />
    <glyph glyph-name="uni0E1A" unicode="&#xe1a;" horiz-adv-x="441" 
d="M185 -9c-26 0 -48.3311 5.16699 -66.998 15.5s-34 23.5 -46 39.5s-20.833 33.833 -26.5 53.5s-8.5 39.167 -8.5 58.5v294h87v-298c0 -22.667 6.33301 -43 19 -61s30 -27 52 -27h42c24.667 0 44.167 9 58.5 27s21.5 38.333 21.5 61v299h87v-295
c0 -19.333 -3 -38.833 -9 -58.5s-15.333 -37.5 -28 -53.5s-28.334 -29.167 -47.001 -39.5s-40.334 -15.5 -65.001 -15.5h-70z" />
    <glyph glyph-name="uni0E1B" unicode="&#xe1b;" horiz-adv-x="441" 
d="M180 -9c-24 0 -45 5.16699 -63 15.5s-33 23.5 -45 39.5s-20.833 33.833 -26.5 53.5s-8.5 39.167 -8.5 58.5v294h87v-298c0 -22.667 6.33301 -43 19 -61s30.667 -27 54 -27h42c24 0 43 9 57 27s21 38.333 21 61v428h87v-424c0 -19.333 -3 -38.833 -9 -58.5
s-15.333 -37.5 -28 -53.5s-28.667 -29.167 -48 -39.5s-42.333 -15.5 -69 -15.5h-70z" />
    <glyph glyph-name="uni0E1C" unicode="&#xe1c;" horiz-adv-x="528" 
d="M491 453c-3.33301 -72.667 -10.167 -137.001 -20.5 -193.001s-21.166 -103.333 -32.499 -142c-13.333 -45.333 -27.666 -84.666 -42.999 -117.999h-58l-81 191l-81 -191h-57c-15.333 31.333 -29 65.333 -41 102c-10 31.333 -19.167 67.5 -27.5 108.5
s-12.5 84.167 -12.5 129.5c0 32 6.66699 58.667 20 80s34 32 62 32h52v-77h-32c-8.66699 0 -13.834 -4.16699 -15.501 -12.5s-2.5 -16.166 -2.5 -23.499c0.666992 -30 3 -57 7 -81s8.33301 -45 13 -63c5.33301 -21.333 11.333 -40.333 18 -57l75 183h42l74 -183
c7.33301 14.667 14.666 36 21.999 64c6 23.333 12 55.166 18 95.499s10.667 91.833 14 154.5z" />
    <glyph glyph-name="uni0E1D" unicode="&#xe1d;" horiz-adv-x="527" 
d="M490 587c0 -100.667 -5 -187.499 -15 -260.499s-21 -133.833 -33 -182.5c-14 -56.667 -29.667 -104.667 -47 -144h-58l-81 191l-81 -191h-58c-14.667 32 -28 66.333 -40 103c-10 32 -19.167 68.167 -27.5 108.5s-12.5 83.166 -12.5 128.499
c0 31.333 6.16699 57.833 18.5 79.5s32.5 32.5 60.5 32.5h55v-77h-33c-8 0 -12.833 -4 -14.5 -12s-2.5 -16 -2.5 -24c0 -30 1.83301 -57.333 5.5 -82s8.16699 -45.667 13.5 -63c5.33301 -21.333 11.666 -40 18.999 -56l74 183h42l74 -183c10 22.667 18.667 54.667 26 96
c6.66699 34.667 12.834 80.667 18.501 138s8.5 129 8.5 215h88z" />
    <glyph glyph-name="uni0E1E" unicode="&#xe1e;" horiz-adv-x="558" 
d="M137 0l-130 452h85l84 -292l75 292h56l74 -292l84 292h86l-130 -452h-68l-74 291l-75 -291h-67z" />
    <glyph glyph-name="uni0E1F" unicode="&#xe1f;" horiz-adv-x="596" 
d="M137 0l-130 452h85l84 -292l75 292h56l74 -292l123 427h85l-168 -587h-68l-74 286l-74 -286h-68z" />
    <glyph glyph-name="uni0E20" unicode="&#xe20;" horiz-adv-x="458" 
d="M151 81c0 -25.333 -6.50195 -45.1699 -19.502 -59.5029s-29.5 -21.5 -49.5 -21.5l-59 -1v78h30c5.33301 0.666992 8.33301 2.83398 9 6.50098s1 8.16699 1 13.5l-1 114c0 12.667 0.833008 23.834 2.5 33.501s3.83398 18.167 6.50098 25.5c2.66699 8 6 15 10 21l-30 25
l-20 16.5c-6 5 -9 7.83301 -9 8.5c12 22.667 27 42.667 45 60c15.333 15.333 34.833 29.333 58.5 42s52.5 19 86.5 19c26.667 0 52.5 -3.16699 77.5 -9.5s47.167 -15.833 66.5 -28.5s35 -28.5 47 -47.5s18 -40.833 18 -65.5v-240c0 -9.33301 -2.66699 -18.166 -8 -26.499
s-11 -15.833 -17 -22.5c-7.33301 -7.33301 -15.666 -14.666 -24.999 -21.999h-38v291c0 18 -3.5 33.167 -10.5 45.5s-16.167 22 -27.5 29s-24.333 12 -39 15s-29.334 4.5 -44.001 4.5c-16 0 -30 -2.33301 -42 -7s-22 -9.66699 -30 -15
c-9.33301 -6.66699 -17.333 -14 -24 -22l61 -50c-5.33301 -4.66699 -9.66602 -10.667 -12.999 -18c-3.33301 -6.66699 -6.33301 -14.834 -9 -24.501s-4 -22.167 -4 -37.5v-130z" />
    <glyph glyph-name="uni0E21" unicode="&#xe21;" horiz-adv-x="451" 
d="M37 452l86.998 0.000976562v-314c8.66699 -10 18.667 -18.667 30 -26c9.33301 -6.66699 20.166 -12.5 32.499 -17.5s25.5 -7.5 39.5 -7.5c38.667 0 65.167 8.66699 79.5 26s21.5 42 21.5 74v265h87v-301c0 -16.667 -3.16699 -34.334 -9.5 -53.001
s-15.666 -36 -27.999 -52s-27.666 -29.167 -45.999 -39.5s-39.5 -15.5 -63.5 -15.5c-25.333 0 -47 4.16699 -65 12.5s-32.667 17.5 -44 27.5c-13.333 12 -24.666 25.333 -33.999 40v-71h-87v452z" />
    <glyph glyph-name="uni0E22" unicode="&#xe22;" horiz-adv-x="426" 
d="M22 136c0 23.333 5.66602 42.8369 16.999 58.5039s24 28.167 38 37.5c16 10.667 34.333 18.667 55 24c-18.667 3.33301 -35.334 9 -50.001 17c-12.667 7.33301 -24.167 17.166 -34.5 29.499s-15.5 28.5 -15.5 48.5c0 18.667 3.33301 35 10 49s15.334 25.667 26.001 35
s22.5 16.333 35.5 21s25.833 7 38.5 7c13.333 0 25.5 -0.833008 36.5 -2.5s20.167 -3.5 27.5 -5.5c8.66699 -2.66699 16.334 -5.33398 23.001 -8.00098v-80c-7.33301 3.33301 -14.666 6.33301 -21.999 9c-6.66699 2 -14.167 4 -22.5 6s-16.5 3 -24.5 3
c-9.33301 0 -18.5 -2.83301 -27.5 -8.5s-13.5 -14.167 -13.5 -25.5c0 -21.333 10.333 -36.166 31 -44.499s47 -12.5 79 -12.5v-77c-21.333 0 -39.5 -2.5 -54.5 -7.5s-27.333 -11.5 -37 -19.5s-16.834 -16.833 -21.501 -26.5s-7 -18.834 -7 -27.501
c0 -24.667 8 -42.334 24 -53.001s38.333 -16 67 -16c34 0 59.5 8.83301 76.5 26.5s25.5 37.834 25.5 60.501v298h87v-294c0 -19.333 -3.16699 -39 -9.5 -59s-17 -38 -32 -54s-34.5 -29 -58.5 -39s-53.667 -15 -89 -15c-33.333 0 -61.333 4 -84 12s-41 18.667 -55 32
s-24 28.666 -30 45.999s-9 35.666 -9 54.999z" />
    <glyph glyph-name="uni0E23" unicode="&#xe23;" horiz-adv-x="381" 
d="M324 342c-8.66699 7.33301 -19.334 14.3379 -32.001 21.0049c-11.333 5.33301 -25.166 10.333 -41.499 15s-35.5 7 -57.5 7c-20 0 -36.5 -4 -49.5 -12s-19.5 -19.667 -19.5 -35c0 -14 5.5 -24.833 16.5 -32.5s24.5 -14.334 40.5 -20.001s33.667 -11.334 53 -17.001
s37 -13.667 53 -24s29.5 -24 40.5 -41s16.5 -39.5 16.5 -67.5c0 -16 -2.16699 -32.667 -6.5 -50s-12.5 -33 -24.5 -47s-28.667 -25.5 -50 -34.5s-49 -13.5 -83 -13.5c-22 0 -41.667 1.83301 -59 5.5s-32.333 8.16699 -45 13.5c-14.667 5.33301 -27.667 11.666 -39 18.999v73
c12.667 -6.66699 26.334 -12.667 41.001 -18c12.667 -4.66699 27.167 -8.83398 43.5 -12.501s33.166 -5.5 50.499 -5.5c56.667 0 85 23.333 85 70c0 16 -5.5 28.167 -16.5 36.5s-24.5 15.166 -40.5 20.499s-33.667 10.5 -53 15.5s-37 12.333 -53 22s-29.5 23 -40.5 40
s-16.5 40.5 -16.5 70.5c0 17.333 4 33.5 12 48.5s19 27.833 33 38.5s30.5 19 49.5 25s39.5 9 61.5 9c21.333 0 40 -2 56 -6s29.667 -8.66699 41 -14c12.667 -6 24 -12.667 34 -20v-80z" />
    <glyph glyph-name="uni0E24" unicode="&#xe24;" horiz-adv-x="458" 
d="M149 98c0 -5.33301 0.328125 -10.0049 0.995117 -14.0049s3.66699 -6 9 -6l32 -1v-77h-54c-23.333 0 -41.5 6.5 -54.5 19.5s-19.5 33.5 -19.5 61.5v130c0 12.667 0.833008 23.834 2.5 33.501s3.83398 18.167 6.50098 25.5c2.66699 8 5.66699 15 9 21l-30 25l-20 16.5
c-6 5 -9 7.83301 -9 8.5c12.667 22.667 28 42.667 46 60c15.333 15.333 35 29.333 59 42s53 19 87 19c25.333 0 50.333 -3.16699 75 -9.5s46.834 -15.833 66.501 -28.5s35.5 -28.5 47.5 -47.5s18 -40.833 18 -65.5v-449c0 -9.33301 -2.66699 -18.166 -8 -26.499
s-11 -15.833 -17 -22.5c-7.33301 -7.33301 -15.666 -14.666 -24.999 -21.999h-38v500c0 18.667 -3.5 34.167 -10.5 46.5s-16.167 22 -27.5 29s-24.333 11.833 -39 14.5s-29.334 4 -44.001 4c-17.333 0 -32.166 -2.33301 -44.499 -7s-22.166 -9.66699 -29.499 -15
c-9.33301 -6.66699 -16.666 -14 -21.999 -22l61 -50c-5.33301 -5.33301 -10 -11.666 -14 -18.999c-3.33301 -6.66699 -6.5 -15.167 -9.5 -25.5s-4.5 -22.166 -4.5 -35.499v-113z" />
    <glyph glyph-name="uni0E25" unicode="&#xe25;" horiz-adv-x="416" 
d="M292 0l-0.00195312 200.998c-4 -2.66699 -9.66699 -5 -17 -7c-6.66699 -2 -16 -3.66699 -28 -5s-28 -2 -48 -2c-9.33301 0 -19.166 -1.16699 -29.499 -3.5s-20 -6.16602 -29 -11.499s-16.5 -12.166 -22.5 -20.499s-9 -18.5 -9 -30.5c0 -17.333 6.33301 -30.833 19 -40.5
s29 -14.5 49 -14.5c7.33301 0 14.333 0.666992 21 2s12.667 3 18 5c6 2.66699 11.667 5.33398 17 8.00098v-79c-4 -2 -9 -4 -15 -6c-5.33301 -1.33301 -11.833 -2.66602 -19.5 -3.99902s-16.834 -2 -27.501 -2c-45.333 0 -81.5 11.167 -108.5 33.5s-40.5 54.833 -40.5 97.5
c0 24.667 5.5 46 16.5 64s25.167 32.833 42.5 44.5s36.5 20.167 57.5 25.5s41.5 8 61.5 8c22.667 0 40.167 0.666992 52.5 2s21.5 2.66602 27.5 3.99902c7.33301 2 11.333 4.33301 12 7v21c0 27.333 -7.66699 48.833 -23 64.5s-38.666 23.5 -69.999 23.5
c-22.667 0 -42.667 -4.33301 -60 -13s-31.666 -18.334 -42.999 -29.001c-13.333 -12 -25 -26 -35 -42l-31 76c10 16 23 30 39 42c13.333 10.667 30.833 20.5 52.5 29.5s47.5 13.5 77.5 13.5c32 0 59.333 -4.33301 82 -13s41.167 -20.834 55.5 -36.501s25 -34.667 32 -57
s10.5 -47.166 10.5 -74.499v-281h-87z" />
    <glyph glyph-name="uni0E26" unicode="&#xe26;" horiz-adv-x="458" 
d="M151 81c0 -25.333 -6.33594 -45.1709 -19.0029 -59.5039s-30.334 -21.5 -53.001 -21.5h-56v77h30c5.33301 0.666992 8.33301 2.83398 9 6.50098s1 8.16699 1 13.5l-1 114c0 12.667 0.833008 23.834 2.5 33.501s3.83398 18.167 6.50098 25.5c2.66699 8 6 15 10 21l-30 25
l-20 16.5c-6 5 -9 7.83301 -9 8.5c11.333 22.667 26 42.667 44 60c15.333 15.333 35.333 29.333 60 42s55 19 91 19c22.667 0 46 -3.16699 70 -9.5s46 -15.833 66 -28.5s36.333 -28.5 49 -47.5s19 -40.833 19 -65.5v-449c0 -9.33301 -2.66699 -18.166 -8 -26.499
s-11 -15.833 -17 -22.5c-7.33301 -7.33301 -15.666 -14.666 -24.999 -21.999h-38v500c0 16 -3.16699 30 -9.5 42s-14.666 21.833 -24.999 29.5s-22.5 13.334 -36.5 17.001s-28.333 5.5 -43 5.5c-19.333 0 -35.5 -2.33301 -48.5 -7s-23.5 -9.66699 -31.5 -15
c-9.33301 -6.66699 -17 -14 -23 -22l61 -50c-5.33301 -4.66699 -9.66602 -10.667 -12.999 -18c-3.33301 -6.66699 -6.33301 -14.834 -9 -24.501s-4 -22.167 -4 -37.5v-130z" />
    <glyph glyph-name="uni0E27" unicode="&#xe27;" horiz-adv-x="413" 
d="M53 129c9.33301 -12 20.3301 -22.6689 32.9971 -32.002c10.667 -8 23.834 -15.167 39.501 -21.5s33.5 -9.5 53.5 -9.5c14.667 0 29.334 3.33301 44.001 10s28 16.834 40 30.501s21.667 30.5 29 50.5s11 43 11 69s-3.66699 48.5 -11 67.5s-16.833 34.667 -28.5 47
s-25 21.333 -40 27s-29.833 8.5 -44.5 8.5c-20 0 -37.833 -2.66699 -53.5 -8s-29.167 -11 -40.5 -17c-12.667 -7.33301 -23.667 -15.666 -33 -24.999l-30 75c9.33301 11.333 21.333 21.333 36 30c12.667 7.33301 28.667 14.333 48 21s43 10 71 10
c30 0 58.167 -5.5 84.5 -16.5s49 -26.667 68 -47s34 -45.166 45 -74.499s16.5 -62 16.5 -98s-5.33301 -68.5 -16 -97.5s-25.5 -53.667 -44.5 -74s-41.333 -36 -67 -47s-53.5 -16.5 -83.5 -16.5c-28 0 -51.667 3.16699 -71 9.5s-35.666 13.166 -48.999 20.499
c-15.333 8.66699 -28 18.667 -38 30z" />
    <glyph glyph-name="uni0E28" unicode="&#xe28;" horiz-adv-x="461" 
d="M124 215c8.66699 8.66699 18.999 16.668 30.999 24.001c10 6 21.667 11.667 35 17s28 8 44 8v-86c-18.667 0 -34.667 -2.16699 -48 -6.5s-24.666 -9.16602 -33.999 -14.499c-10.667 -6.66699 -20 -13.667 -28 -21v-136h-87v311c0 24 5.66699 45.333 17 64
s26 34.5 44 47.5s38.167 22.833 60.5 29.5s44.833 10 67.5 10c11.333 0 23.333 -0.666992 36 -2s24 -3.66602 34 -6.99902c13.333 5.33301 23.5 12.5 30.5 21.5s10.5 21.167 10.5 36.5h87c0 -22 -5 -41.5 -15 -58.5s-22.667 -29.167 -38 -36.5
c18 -12.667 31.333 -28.834 40 -48.501s13 -38.5 13 -56.5v-311h-87v311c0 23.333 -11 41.666 -33 54.999s-48 20 -78 20s-54.5 -7.33301 -73.5 -22s-28.5 -32.334 -28.5 -53.001v-96z" />
    <glyph glyph-name="uni0E29" unicode="&#xe29;" horiz-adv-x="441" 
d="M227 207l0.000976562 63.999h90l-1 181h88v-181h30v-64h-30l-1 -49c-0.666992 -24 -4.5 -46.167 -11.5 -66.5s-16.833 -38 -29.5 -53s-28 -26.667 -46 -35s-38.333 -12.5 -61 -12.5h-70c-22.667 0 -43.167 4.33301 -61.5 13s-33.833 20.667 -46.5 36s-22.5 33 -29.5 53
s-10.5 41.667 -10.5 65v294h87v-295c0 -24 6.33301 -45.167 19 -63.5s31 -27.5 55 -27.5h42c25.333 0 44.166 8.83301 56.499 26.5s18.833 37.834 19.5 60.501l1 54h-90z" />
    <glyph glyph-name="uni0E2A" unicode="&#xe2a;" horiz-adv-x="421" 
d="M293 0l-0.00195312 200.999c-5.33301 -2.66699 -12.333 -5 -21 -7c-7.33301 -2 -17.5 -3.66699 -30.5 -5s-29.5 -2 -49.5 -2c-9.33301 0 -18.666 -1.66699 -27.999 -5s-18 -7.83301 -26 -13.5s-14.5 -12.5 -19.5 -20.5s-7.5 -17 -7.5 -27
c0 -17.333 6.16699 -30.833 18.5 -40.5s28.5 -14.5 48.5 -14.5c7.33301 0 14.333 0.833008 21 2.5s12.667 3.5 18 5.5c6 2.66699 11.667 5.33398 17 8.00098l1 -80c-5.33301 -2 -11 -4 -17 -6c-5.33301 -1.33301 -11.5 -2.66602 -18.5 -3.99902s-14.167 -2 -21.5 -2
c-22.667 0 -43.5 2.66699 -62.5 8s-35.5 13.5 -49.5 24.5s-24.833 24.667 -32.5 41s-11.5 35.5 -11.5 57.5c0 24.667 5.16699 46 15.5 64s23.5 32.667 39.5 44s34.167 19.666 54.5 24.999s40.5 8 60.5 8c22.667 0 40.5 0.666992 53.5 2s23.167 3 30.5 5
c8 2 13.667 4.33301 17 7v21c0 27.333 -7.83301 48.833 -23.5 64.5s-38.5 23.5 -68.5 23.5c-22.667 0 -42.667 -4.33301 -60 -13s-31.666 -18.334 -42.999 -29.001c-13.333 -12 -25 -26 -35 -42l-31 77c10 16 23 30 39 42c13.333 10.667 30.833 20.334 52.5 29.001
s47.5 13 77.5 13c20.667 0 39 -2 55 -6c15.333 6 26 13.333 32 22s9 19.667 9 33h87c0 -20 -5.66699 -37 -17 -51s-26 -25.333 -44 -34c18.667 -14 33 -33.5 43 -58.5s15 -53.833 15 -86.5v-281h-88z" />
    <glyph glyph-name="uni0E2B" unicode="&#xe2b;" horiz-adv-x="420" 
d="M295 452l118 -0.00195312l-158 -155c13.333 -2.66699 28 -7.16699 44 -13.5s31 -15.666 45 -27.999s25.833 -28.666 35.5 -48.999s14.5 -45.5 14.5 -75.5v-131h-88v117c0 24 -3.66699 44.333 -11 61s-16.333 30.167 -27 40.5s-21.5 18 -32.5 23
s-20.167 8.16699 -27.5 9.5l-84 -85v-166h-87v452h87v-169z" />
    <glyph glyph-name="uni0E2C" unicode="&#xe2c;" horiz-adv-x="596" 
d="M139 0l-131.002 452.003h86l84 -292l74 292h57l73 -292l63 211c2.66699 7.33301 4 15.333 4 24c0 12.667 -3.16699 23.667 -9.5 33s-13.166 17.333 -20.499 24c-8.66699 7.33301 -18.334 13.666 -29.001 18.999c20.667 7.33301 39.334 16.666 56.001 27.999
c14 9.33301 27 21.333 39 36s18 32 18 52h88c0 -25.333 -6 -45.333 -18 -60s-25.333 -26.334 -40 -35.001c-17.333 -10 -36.666 -17 -57.999 -21c10.667 -4 20 -9.33301 28 -16c7.33301 -5.33301 13.833 -12.5 19.5 -21.5s9.16699 -19.833 10.5 -32.5
c0.666992 -9.33301 -0.333008 -19 -3 -29s-4.66699 -16.667 -6 -20l-101 -352h-68l-75 286l-73 -286h-68z" />
    <glyph glyph-name="uni0E2D" unicode="&#xe2d;" horiz-adv-x="453" 
d="M22 301c4.66699 30 15 56.6709 31 80.0039c13.333 20 33.166 38.5 59.499 55.5s62.166 25.5 107.499 25.5c40 0 73.5 -7.5 100.5 -22.5s48.667 -34 65 -57s28 -48.5 35 -76.5s10.5 -54.667 10.5 -80c0 -38.667 -5.33301 -72.667 -16 -102s-25.5 -53.833 -44.5 -73.5
s-41.333 -34.5 -67 -44.5s-53.5 -15 -83.5 -15c-29.333 0 -56 4.16699 -80 12.5s-44.667 20.166 -62 35.499s-30.833 33.833 -40.5 55.5s-14.5 45.5 -14.5 71.5c0 28 5.33301 48 16 60s26 18 46 18h106v-77l-64 1c-11.333 0 -16.333 -5 -15 -15
c4 -26.667 15.5 -47.834 34.5 -63.501s43.5 -23.5 73.5 -23.5c42 0 73 13.5 93 40.5s30 66.833 30 119.5c0 51.333 -11.667 90.666 -35 117.999s-52.666 41 -87.999 41c-23.333 0 -42.166 -4.33301 -56.499 -13s-25.833 -18.334 -34.5 -29.001c-10 -12 -17.333 -26 -22 -42
h-85z" />
    <glyph glyph-name="uni0E2E" unicode="&#xe2e;" horiz-adv-x="453" 
d="M22 302c4.66699 30 14.9971 56.667 30.9971 80c6.66699 10 14.834 19.833 24.501 29.5s21.334 18.167 35.001 25.5s29.167 13.333 46.5 18s37.333 7 60 7c10.667 0 22 -0.5 34 -1.5s24 -3.83301 36 -8.5c13.333 4 23.833 10.833 31.5 20.5s11.5 22.5 11.5 38.5h83
c0 -23.333 -6.66699 -43.333 -20 -60s-27.666 -28 -42.999 -34c28 -23.333 48.167 -52.166 60.5 -86.499s18.5 -69.166 18.5 -104.499c0 -38.667 -5.33301 -72.667 -16 -102s-25.5 -53.833 -44.5 -73.5s-41.333 -34.5 -67 -44.5s-53.5 -15 -83.5 -15
c-29.333 0 -56 4.16699 -80 12.5s-44.667 20.166 -62 35.499s-30.833 33.833 -40.5 55.5s-14.5 45.5 -14.5 71.5c0 22 4 40.5 12 55.5s24.333 22.5 49 22.5h107v-77h-63c-11.333 0 -16.333 -5 -15 -15c2.66699 -25.333 13.667 -46 33 -62s44 -24 74 -24
c82 0 123 53.333 123 160c0 51.333 -11.667 90.833 -35 118.5s-53 41.5 -89 41.5c-23.333 0 -42 -4.33301 -56 -13s-25.333 -18.334 -34 -29.001c-10 -12 -17.333 -26 -22 -42h-85z" />
    <glyph glyph-name="uni0E2F" unicode="&#xe2f;" horiz-adv-x="418" 
d="M108 452c3.33301 -14 7.00098 -26.499 11.001 -37.499s9 -20.333 15 -28s13.667 -13.5 23 -17.5s21 -6 35 -6c24 0 45.667 7.5 65 22.5s32.666 37.167 39.999 66.5h84v-294c0 -60 -10.5 -101.333 -31.5 -124s-52.5 -34 -94.5 -34v77c6.66699 0 12.5 0.333008 17.5 1
s9.16699 3.66699 12.5 9s5.66602 13.666 6.99902 24.999s2 27.666 2 48.999v174c-7.33301 -9.33301 -16.333 -17.666 -27 -24.999c-9.33301 -6 -20.666 -11.5 -33.999 -16.5s-29.333 -7.5 -48 -7.5c-25.333 0 -47.333 4.5 -66 13.5s-34.667 21.167 -48 36.5s-24 33 -32 53
s-13.667 41 -17 63h86z" />
    <glyph glyph-name="uni0E30" unicode="&#xe30;" horiz-adv-x="288" 
d="M251 135l-31.998 -74.999h-83c-34.667 0 -59.834 7.5 -75.501 22.5s-23.5 37.833 -23.5 68.5v44h83v-36c0 -8.66699 2.66699 -14.834 8 -18.501s16.666 -5.5 33.999 -5.5h89zM251.002 352.001l-31.999 -74.999h-85c-36 0 -61.167 8 -75.5 24s-21.5 39.333 -21.5 70v41h83
v-36c0 -8.66699 2.66699 -14.834 8 -18.501s16.666 -5.5 33.999 -5.5h89z" />
    <glyph glyph-name="uni0E31" unicode="&#xe31;" 
d="M50 601l-30.999 -74h-179c-14 0 -27 1.33301 -39 4s-22.333 7.33398 -31 14.001s-15.5 16 -20.5 28s-7.5 27 -7.5 45v42h84v-35c0 -8.66699 2.66699 -14.834 8 -18.501s16.666 -5.5 33.999 -5.5h182z" />
    <glyph glyph-name="uni0E32" unicode="&#xe32;" horiz-adv-x="366" 
d="M22 415c10 8 21.001 15.666 33.001 22.999c10.667 6 23.334 11.5 38.001 16.5s31.334 7.5 50.001 7.5c23.333 0 46.166 -3.66699 68.499 -11s42.166 -18.166 59.499 -32.499s31.333 -32.166 42 -53.499s16 -46 16 -74v-291h-87v281c0 18.667 -3.16699 34.667 -9.5 48
s-14.5 24.166 -24.5 32.499s-21.167 14.333 -33.5 18s-24.5 5.5 -36.5 5.5c-15.333 0 -30 -2.5 -44 -7.5s-26.333 -10.5 -37 -16.5c-12.667 -7.33301 -24.334 -15 -35.001 -23v77z" />
    <glyph glyph-name="uni0E33" unicode="&#xe33;" horiz-adv-x="366" 
d="M-160 619c0 -8.66699 2.83301 -15.834 8.5 -21.501s12.834 -8.5 21.501 -8.5c8 0 15 2.83301 21 8.5s9 12.834 9 21.501c0 8 -3 15 -9 21s-13 9 -21 9c-8.66699 0 -15.834 -3 -21.501 -9s-8.5 -13 -8.5 -21zM-221 619c0 12.667 2.5 24.667 7.5 36
s11.667 21.166 20 29.499s18 15 29 20s22.833 7.5 35.5 7.5s24.667 -2.5 36 -7.5s21.166 -11.667 29.499 -20s15 -18.166 20 -29.499s7.5 -23.333 7.5 -36s-2.5 -24.5 -7.5 -35.5s-11.667 -20.667 -20 -29s-18.166 -15 -29.499 -20s-23.333 -7.5 -36 -7.5
c-25.333 0 -47 9 -65 27s-27 39.667 -27 65zM22 415c10 8 21.001 15.666 33.001 22.999c10.667 6 23.334 11.5 38.001 16.5s31.334 7.5 50.001 7.5c23.333 0 46.166 -3.66699 68.499 -11s42.166 -18.166 59.499 -32.499s31.333 -32.166 42 -53.499s16 -46 16 -74v-291h-87
v281c0 18.667 -3.16699 34.667 -9.5 48s-14.5 24.166 -24.5 32.499s-21.167 14.333 -33.5 18s-24.5 5.5 -36.5 5.5c-15.333 0 -30 -2.5 -44 -7.5s-26.333 -10.5 -37 -16.5c-12.667 -7.33301 -24.334 -15 -35.001 -23v77z" />
    <glyph glyph-name="uni0E34" unicode="&#xe34;" 
d="M-372 527l31 72h283v-72h-314z" />
    <glyph glyph-name="uni0E35" unicode="&#xe35;" 
d="M-372 527l31 75h195v58h88v-133h-314z" />
    <glyph glyph-name="uni0E36" unicode="&#xe36;" 
d="M-152 603c0 -4 1.5 -7.5 4.5 -10.5s6.5 -4.5 10.5 -4.5s7.5 1.5 10.5 4.5s4.5 6.5 4.5 10.5s-1.5 7.5 -4.5 10.5s-6.5 4.5 -10.5 4.5s-7.5 -1.5 -10.5 -4.5s-4.5 -6.5 -4.5 -10.5zM-372 527l31.002 74.9951h127c-0.666992 2.66699 -0.833984 5.16699 -0.500977 7.5
s0.5 4.83301 0.5 7.5c2.66699 18.667 11.667 33.834 27 45.501s32 17.5 50 17.5c12.667 0 24 -2.33301 34 -7s18.333 -10.667 25 -18s11.667 -15.666 15 -24.999s5 -18.666 5 -27.999c0 -11.333 -2.5 -21.666 -7.5 -30.999s-11.167 -17.166 -18.5 -23.499
s-15.833 -11.333 -25.5 -15s-18.834 -5.5 -27.501 -5.5h-235z" />
    <glyph glyph-name="uni0E37" unicode="&#xe37;" 
d="M-372 527l31 75h115v58h64v-58h30v58h74v-133h-314z" />
    <glyph glyph-name="uni0E38" unicode="&#xe38;" 
d="M-36 -237h-88v64c0 6 -2 11.5 -6 16.5s-9.33301 7.5 -16 7.5h-28v75h50c26.667 0 48 -7 64 -21s24 -34.333 24 -61v-81z" />
    <glyph glyph-name="uni0E39" unicode="&#xe39;" 
d="M-253 -174c0 6 -2 11.499 -6 16.499s-9.33301 7.5 -16 7.5h-29v76h56c21.333 0 40.333 -6.33301 57 -19s25 -29.667 25 -51c0 -10.667 1.5 -18 4.5 -22s8.16699 -6 15.5 -6c8 0 13.667 2 17 6s5 11.333 5 22v70h88v-86c0 -9.33301 -1.33301 -19.166 -4 -29.499
s-8 -19.833 -16 -28.5s-19.333 -15.667 -34 -21s-34.334 -8 -59.001 -8c-19.333 0 -35.666 2 -48.999 6s-24 9.33301 -32 16s-13.833 14.5 -17.5 23.5s-5.5 18.167 -5.5 27.5z" />
    <glyph glyph-name="uni0E3A" unicode="&#xe3a;" 
d="M-124 -157v83h88v-83h-88z" />
    <glyph glyph-name="uni0E3F" unicode="&#xe3f;" horiz-adv-x="411" 
d="M124 436l0.000976562 -127.001h45c9.33301 0 19.166 1 29.499 3s19.833 5.5 28.5 10.5s15.834 11.833 21.501 20.5s8.5 19.667 8.5 33c0 10.667 -2.5 19.834 -7.5 27.501s-11.333 14 -19 19s-16.334 8.5 -26.001 10.5s-19.5 3 -29.5 3h-51zM124.001 231.999v-156h62
c33.333 0 58.5 8 75.5 24s25.5 33 25.5 51c0 22 -8.66699 41 -26 57s-46 24 -86 24h-51zM374.001 150.999c0 -20 -3.83301 -38.6689 -11.5 -56.002s-18.5 -32.666 -32.5 -45.999s-30.667 -24.166 -50 -32.499s-40.333 -13.5 -63 -15.5v-84h-84v83h-96v513h96v83h84v-86
c40 -4 71.167 -17.833 93.5 -41.5s33.5 -51.167 33.5 -82.5c0 -26 -7.16699 -49.833 -21.5 -71.5s-34.833 -36.167 -61.5 -43.5c32 -5.33301 58.833 -18.333 80.5 -39s32.5 -47.667 32.5 -81z" />
    <glyph glyph-name="uni0E40" unicode="&#xe40;" horiz-adv-x="186" 
d="M37 452h87v-355c0 -5.33301 0.333008 -9.83301 1 -13.5s3.66699 -5.83398 9 -6.50098h30v-77h-54c-20 0 -37.167 5.83301 -51.5 17.5s-21.5 32.834 -21.5 63.501v371z" />
    <glyph glyph-name="uni0E41" unicode="&#xe41;" horiz-adv-x="371" 
d="M222 452l87 0.000976562v-355c0 -5.33301 0.333008 -9.83301 1 -13.5s3.66699 -5.83398 9 -6.50098h30v-77h-58c-20 0 -36.5 6.5 -49.5 19.5s-19.5 33.5 -19.5 61.5v371zM37 452.001l87 0.000976562v-355c0 -5.33301 0.333008 -9.83301 1 -13.5
s3.66699 -5.83398 9 -6.50098h30v-77h-58c-20 0 -36.5 6.5 -49.5 19.5s-19.5 33.5 -19.5 61.5v371z" />
    <glyph glyph-name="uni0E42" unicode="&#xe42;" horiz-adv-x="239" 
d="M90 417c0 20.667 -0.999023 38.835 -2.99902 54.502s-4.33301 29.5 -7 41.5l-7 32.5c-2 9.66699 -3 19.167 -3 28.5c0 30 12.167 53.833 36.5 71.5s61.166 26.5 110.499 26.5h120v-76h-77c-35.333 0 -61.333 -2.16699 -78 -6.5s-25 -12.5 -25 -24.5c0 -8 1 -16.333 3 -25
l7 -29.5c2.66699 -11 5 -24.167 7 -39.5s3 -33.333 3 -54v-321c0 -5.33301 0.333008 -9.83301 1 -13.5s3.66699 -5.83398 9 -6.50098h30v-76h-59c-20 0 -36.333 7.16699 -49 21.5s-19 34.166 -19 59.499v336z" />
    <glyph glyph-name="uni0E43" unicode="&#xe43;" horiz-adv-x="305" 
d="M243 99c0 -5.33301 0.333008 -9.8291 1 -13.4961s3.66699 -5.83398 9 -6.50098h30v-79h-57c-22 0 -39.333 7.16699 -52 21.5s-19 34.166 -19 59.499v311c0 20 1 37 3 51s4.33301 26.667 7 38s5 21.833 7 31.5s3 19.5 3 29.5c0 17.333 -4.83301 32.166 -14.5 44.499
s-25.5 18.5 -47.5 18.5c-13.333 0 -25.166 -3.5 -35.499 -10.5s-19.166 -14.5 -26.499 -22.5c-8 -10 -15.333 -21 -22 -33l-29 74c7.33301 12.667 16.666 24 27.999 34c9.33301 8.66699 21.166 16.667 35.499 24s31.166 11 50.499 11c20 0 39 -2.66699 57 -8
s33.833 -13.666 47.5 -24.999s24.334 -25.833 32.001 -43.5s11.5 -38.834 11.5 -63.501c0 -15.333 -1 -27.5 -3 -36.5l-6.5 -28c-2.33301 -9.66699 -4.5 -20.834 -6.5 -33.501s-3 -30 -3 -52v-293z" />
    <glyph glyph-name="uni0E44" unicode="&#xe44;" horiz-adv-x="319" 
d="M257 97c0 -5.33301 0.332031 -9.83008 0.999023 -13.4971s3.66699 -5.83398 9 -6.50098h30v-77h-55c-23.333 0 -41.166 7.16699 -53.499 21.5s-18.5 34.166 -18.5 59.499v440c0 6.66699 0.166992 14.5 0.5 23.5s-0.166992 17.667 -1.5 26s-3.83301 15 -7.5 20
s-9.5 6.83301 -17.5 5.5c-5.33301 -1.33301 -10.833 -5.5 -16.5 -12.5s-10.834 -14.167 -15.501 -21.5c-5.33301 -9.33301 -10.333 -19.333 -15 -30c-6.66699 12 -14.667 22.667 -24 32c-8 8 -18.167 15.333 -30.5 22s-26.5 10 -42.5 10v76c11.333 0 22 -2.33301 32 -7
s19 -10 27 -16s14.667 -11.667 20 -17l10 -10c5.33301 9.33301 11.666 17.666 18.999 24.999c6.66699 6 14.834 11.667 24.501 17s21.834 8 36.501 8c18 0 32.667 -4.33301 44 -13s20.333 -20.167 27 -34.5s11.167 -30.5 13.5 -48.5s3.5 -36.333 3.5 -55v-424z" />
    <glyph glyph-name="uni0E45" unicode="&#xe45;" horiz-adv-x="366" 
d="M22 415c10 8 20.998 15.6631 32.998 22.9961c10.667 6 23.667 11.5 39 16.5s33 7.5 53 7.5c22.667 0 44.834 -3.66699 66.501 -11s41 -18.166 58 -32.499s30.833 -32.166 41.5 -53.499s16 -46 16 -74v-429c0 -9.33301 -2.66699 -18.166 -8 -26.499s-11 -15.833 -17 -22.5
c-7.33301 -7.33301 -15.666 -14.666 -24.999 -21.999h-37v490c0 20 -3.33301 36.667 -10 50s-15.167 24 -25.5 32s-21.666 13.667 -33.999 17s-23.833 5 -34.5 5c-15.333 0 -30 -2.5 -44 -7.5s-26.333 -10.5 -37 -16.5c-12.667 -7.33301 -24.334 -15 -35.001 -23v77z" />
    <glyph glyph-name="uni0E46" unicode="&#xe46;" horiz-adv-x="426" 
d="M389 -138c0 -9.33301 -2.66797 -18.167 -8.00098 -26.5s-11 -15.833 -17 -22.5c-7.33301 -7.33301 -15.666 -14.666 -24.999 -21.999h-37v520c0 49.333 -12 74 -36 74c-4 0 -9.5 -3.66699 -16.5 -11s-13.833 -15.333 -20.5 -24l-24 -35l-25 35
c-6.66699 8.66699 -13.334 16.667 -20.001 24s-12 11 -16 11c-7.33301 0 -15 -4 -23 -12s-12 -22 -12 -42c0 -12 1.66699 -22.167 5 -30.5s7 -15.166 11 -20.499c4.66699 -6.66699 10.334 -11.667 17.001 -15l-29 -71c-17.333 4.66699 -32.666 13 -45.999 25
c-11.333 10 -21.666 23.833 -30.999 41.5s-14 41.167 -14 70.5c0 17.333 2.66699 34 8 50s13 30 23 42s22 21.5 36 28.5s29.333 10.5 46 10.5c7.33301 0 15 -3.33301 23 -10s15.667 -13.667 23 -21c8 -8.66699 16 -18.667 24 -30c8.66699 11.333 17 21.333 25 30
c7.33301 7.33301 15.166 14.333 23.499 21s16.166 10 23.499 10c18.667 0 35 -4 49 -12s25.667 -18.333 35 -31s16.333 -26.834 21 -42.501s7 -30.834 7 -45.501v-469z" />
    <glyph glyph-name="uni0E47" unicode="&#xe47;" 
d="M-174 701c14.667 0 27.8311 2.5 39.498 7.5s21.5 10.5 29.5 16.5c9.33301 7.33301 17.666 15 24.999 23v-80c-7.33301 -4 -15.666 -7.33301 -24.999 -10c-8 -2.66699 -17.667 -5 -29 -7s-24.666 -3 -39.999 -3h-70c-20 0 -33.333 -4.33301 -40 -13s-10 -17.667 -10 -27
c0 -6 2.5 -12.5 7.5 -19.5s12.5 -10.5 22.5 -10.5c8 0 14.5 1.83301 19.5 5.5s9.16699 8.16699 12.5 13.5s6 11.666 8 18.999h23c1.33301 -7.33301 3.33301 -13.666 6 -18.999c2 -5.33301 4.66699 -9.83301 8 -13.5s7.66602 -5.5 12.999 -5.5c10 0 17.5 4 22.5 12
s7.5 16.667 7.5 26h64c0 -11.333 -2 -22.333 -6 -33s-9.66699 -20.167 -17 -28.5s-16.166 -15 -26.499 -20s-21.833 -7.5 -34.5 -7.5c-7.33301 0 -14 1.5 -20 4.5s-11.333 6.5 -16 10.5c-5.33301 4.66699 -10 10 -14 16c-4 -6 -9 -11.333 -15 -16
c-5.33301 -4 -11.666 -7.5 -18.999 -10.5s-16 -4.5 -26 -4.5s-20 1.66699 -30 5s-19 8.33301 -27 15s-14.5 15 -19.5 25s-7.5 22 -7.5 36c0 17.333 3 31.833 9 43.5s14 21 24 28s21.167 12.167 33.5 15.5s24.833 5 37.5 5z" />
    <glyph glyph-name="uni0E48" unicode="&#xe48;" 
d="M-124 660h88v-133h-88v133z" />
    <glyph glyph-name="uni0E49" unicode="&#xe49;" 
d="M20 601l-30.001 -74.002h-171c-13.333 0 -24.666 3.16699 -33.999 9.5s-14 15.833 -14 28.5c0 8.66699 -2 14.167 -6 16.5s-8 3.5 -12 3.5h-36v75h92c10 0 19.167 -3.83301 27.5 -11.5s12.5 -16.5 12.5 -26.5c0 -5.33301 2 -10.166 6 -14.499
s8.66699 -6.16602 14 -5.49902z" />
    <glyph glyph-name="uni0E4A" unicode="&#xe4a;" 
d="M-199 628c2.66699 6 6.33301 11.332 11 15.999c3.33301 4 8 7.66699 14 11s12.667 5 20 5c18 0 34.167 -5 48.5 -15s21.5 -21.333 21.5 -34c0 -5.33301 1 -8.33301 3 -9s4.66699 -1 8 -1h93l-30 -74h-87c-9.33301 0 -17 1.66699 -23 5s-10.833 7.66602 -14.5 12.999
s-6.16699 10.833 -7.5 16.5s-2 11.167 -2 16.5c0 7.33301 -1.66699 14.166 -5 20.499s-8.33301 9.5 -15 9.5c-8.66699 0 -14.5 -3.16699 -17.5 -9.5s-4.5 -13.166 -4.5 -20.499h-27c0 6.66699 -1 13.334 -3 20.001s-8 10 -18 10c-5.33301 0 -10 -3.16699 -14 -9.5
s-6 -13.166 -6 -20.499s1.66699 -14.166 5 -20.499s7 -11.833 11 -16.5c4.66699 -5.33301 10 -10 16 -14h-79c-5.33301 4 -10 8.66699 -14 14c-3.33301 4.66699 -6.33301 10.167 -9 16.5s-4 13.166 -4 20.499c0 12.667 2.5 24.167 7.5 34.5s11.5 19 19.5 26s17 12.333 27 16
s20 5.5 30 5.5c7.33301 0 13.833 -1.66699 19.5 -5s10.5 -7 14.5 -11c4 -4.66699 7.66699 -10 11 -16z" />
    <glyph glyph-name="uni0E4B" unicode="&#xe4b;" 
d="M-124 660h88v-30h49v-74h-49v-29h-88v29h-50v75h50v29z" />
    <glyph glyph-name="uni0E4C" unicode="&#xe4c;" 
d="M-145 527l-87.998 0.000976562v32c0 12 2.66699 24.167 8 36.5s12.666 23.166 21.999 32.499s20.166 17 32.499 23s25.5 9 39.5 9h72l-31 -75h-18c-14 0 -23.667 -3.66699 -29 -11s-8 -17.333 -8 -30v-17z" />
    <glyph glyph-name="uni0E4D" unicode="&#xe4d;" 
d="M-160 618c0 -8.66699 2.83301 -15.834 8.5 -21.501s12.834 -8.5 21.501 -8.5c8 0 15 2.83301 21 8.5s9 12.834 9 21.501c0 8 -3 15 -9 21s-13 9 -21 9c-8.66699 0 -15.834 -3 -21.501 -9s-8.5 -13 -8.5 -21zM-221 618c0 12.667 2.5 24.667 7.5 36s11.667 21.333 20 30
s18 15.334 29 20.001s22.833 7 35.5 7s24.667 -2.33301 36 -7s21.166 -11.334 29.499 -20.001s15 -18.667 20 -30s7.5 -23.333 7.5 -36s-2.5 -24.5 -7.5 -35.5s-11.667 -20.667 -20 -29s-18.166 -14.833 -29.499 -19.5s-23.333 -7 -36 -7c-25.333 0 -47 8.83301 -65 26.5
s-27 39.167 -27 64.5z" />
    <glyph glyph-name="uni0E4E" unicode="&#xe4e;" 
d="M-241 527c-3.33301 4.66699 -7.00195 11.1689 -11.002 19.502s-6 18.166 -6 29.499c0 14.667 2.83301 27.5 8.5 38.5s13.167 20 22.5 27s19.833 12.167 31.5 15.5s23.5 5 35.5 5c0 21.333 10.333 37 31 47s47.334 15 80.001 15v-46c-10 0 -19.167 -1 -27.5 -3
s-15.5 -6 -21.5 -12s-10.667 -14.5 -14 -25.5s-5 -25.167 -5 -42.5c-14 0 -27 -2.5 -39 -7.5s-18 -15.167 -18 -30.5c0 -5.33301 0.833008 -9.83301 2.5 -13.5s3.5 -6.83398 5.5 -9.50098c2.66699 -2.66699 5.33398 -5 8.00098 -7h-83z" />
    <glyph glyph-name="uni0E4F" unicode="&#xe4f;" horiz-adv-x="475" 
d="M237 325c-18 0 -35.167 -3.5 -51.5 -10.5s-30.666 -16.5 -42.999 -28.5s-22 -26.167 -29 -42.5s-10.5 -33.833 -10.5 -52.5c0 -18 3.5 -35.167 10.5 -51.5s16.667 -30.666 29 -42.999s26.666 -22 42.999 -29s33.5 -10.5 51.5 -10.5c18.667 0 36.167 3.5 52.5 10.5
s30.5 16.667 42.5 29s21.5 26.666 28.5 42.999s10.5 33.5 10.5 51.5c0 18.667 -3.5 36.167 -10.5 52.5s-16.5 30.5 -28.5 42.5s-26.167 21.5 -42.5 28.5s-33.833 10.5 -52.5 10.5zM237 391c28 0 54.167 -5.16699 78.5 -15.5s45.666 -24.5 63.999 -42.5
s32.666 -39.167 42.999 -63.5s15.5 -50.5 15.5 -78.5s-5.16699 -54.167 -15.5 -78.5s-24.666 -45.5 -42.999 -63.5s-39.666 -32.167 -63.999 -42.5s-50.5 -15.5 -78.5 -15.5c-27.333 0 -53.166 5.16699 -77.499 15.5s-45.5 24.5 -63.5 42.5s-32.333 39.167 -43 63.5
s-16 50.5 -16 78.5s5.33301 54.167 16 78.5s25 45.5 43 63.5s39.167 32.167 63.5 42.5s50.166 15.5 77.499 15.5zM237 282c25.333 0 46.833 -8.83301 64.5 -26.5s26.5 -39.167 26.5 -64.5c0 -12.667 -2.33301 -24.5 -7 -35.5s-11.167 -20.667 -19.5 -29
s-18 -14.833 -29 -19.5s-22.833 -7 -35.5 -7c-25.333 0 -46.833 8.83301 -64.5 26.5s-26.5 39.167 -26.5 64.5c0 12.667 2.33301 24.5 7 35.5s11.167 20.667 19.5 29s18 14.833 29 19.5s22.833 7 35.5 7z" />
    <glyph glyph-name="uni0E50" unicode="&#xe50;" horiz-adv-x="452" 
d="M109 191c0 -17.333 3 -33.666 9 -48.999s14.333 -28.666 25 -39.999s23.167 -20.333 37.5 -27s29.5 -10 45.5 -10s31.167 3.33301 45.5 10s26.666 15.667 36.999 27s18.666 24.666 24.999 39.999s9.5 31.666 9.5 48.999s-3.16699 33.5 -9.5 48.5
s-14.666 28.167 -24.999 39.5s-22.666 20.333 -36.999 27s-29.5 10 -45.5 10s-31.167 -3.33301 -45.5 -10s-26.833 -15.667 -37.5 -27s-19 -24.5 -25 -39.5s-9 -31.167 -9 -48.5zM22 190c0 28 5.33008 54.167 15.9971 78.5s25.334 45.666 44.001 63.999
s40.167 32.833 64.5 43.5s50.5 16 78.5 16s54.333 -5.33301 79 -16s46.334 -25.167 65.001 -43.5s33.5 -39.666 44.5 -63.999s16.5 -50.5 16.5 -78.5s-5.66699 -54.167 -17 -78.5s-26.5 -45.5 -45.5 -63.5s-41 -32.167 -66 -42.5s-51.5 -15.5 -79.5 -15.5
c-27.333 0 -53.166 5.16699 -77.499 15.5s-45.5 24.5 -63.5 42.5s-32.333 39.167 -43 63.5s-16 50.5 -16 78.5z" />
    <glyph glyph-name="uni0E51" unicode="&#xe51;" horiz-adv-x="451" 
d="M175 36l4.00586 0.00195312c16.667 0 34.5 3 53.5 9s36.667 15 53 27s29.833 26.667 40.5 44s16 37.333 16 60c0 23.333 -3.33301 43.666 -10 60.999s-15.667 31.833 -27 43.5s-24.333 20.334 -39 26.001s-30.334 8.5 -47.001 8.5c-20 0 -36.833 -3.16699 -50.5 -9.5
s-25 -14 -34 -23s-15.5 -18.5 -19.5 -28.5s-6 -19 -6 -27c0 -23.333 5.16699 -41.166 15.5 -53.499s20.166 -18.5 29.499 -18.5c11.333 0 18.833 3.5 22.5 10.5s5.5 16.167 5.5 27.5v19h87v-32c0 -8.66699 -1.5 -18.834 -4.5 -30.501s-8.66699 -22.834 -17 -33.501
s-20 -19.667 -35 -27s-34.5 -11 -58.5 -11c-14 0 -28.833 3 -44.5 9s-30 15.167 -43 27.5s-23.667 27.833 -32 46.5s-12.5 40.667 -12.5 66c0 21.333 5 41.833 15 61.5s23.667 37.167 41 52.5s38.166 27.666 62.499 36.999s50.5 14 78.5 14c29.333 0 56.666 -5 81.999 -15
s47.5 -24.167 66.5 -42.5s34 -40.833 45 -67.5s16.5 -57 16.5 -91c0 -36.667 -7.83301 -68.5 -23.5 -95.5s-35.334 -49.167 -59.001 -66.5s-49.334 -30.333 -77.001 -39s-53.5 -13 -77.5 -13h-19c-10 0 -16.667 0.333008 -20 1z" />
    <glyph glyph-name="uni0E52" unicode="&#xe52;" horiz-adv-x="556" 
d="M225 -9c-14.667 0 -29.999 3 -45.999 9s-30.667 15 -44 27s-24.333 27.167 -33 45.5s-13 39.833 -13 64.5v301c0 10.667 -1 20.667 -3 30s-6 17.5 -12 24.5s-14.333 12.5 -25 16.5s-24.667 6 -42 6v76h15c24.667 0 46.334 -5.33301 65.001 -16s34.334 -24 47.001 -40
s22.167 -33 28.5 -51s9.5 -34.333 9.5 -49v-284c0 -16.667 2.5 -30.5 7.5 -41.5s11.167 -19.667 18.5 -26s15.333 -10.833 24 -13.5s16.667 -4 24 -4h131c17.333 0 33.333 5.33301 48 16s22 29.667 22 57v106c0 8.66699 -0.5 18 -1.5 28s-3 19.333 -6 28
s-7.33301 15.834 -13 21.501s-12.834 8.5 -21.501 8.5c-6.66699 0 -12.667 -2 -18 -6s-10 -8.66699 -14 -14c-4.66699 -6 -9.33398 -12.667 -14.001 -20c-4 7.33301 -8.33301 14 -13 20c-4 5.33301 -8.66699 10 -14 14s-11 6 -17 6c-11.333 0 -20.166 -4.5 -26.499 -13.5
s-9.5 -19.167 -9.5 -30.5c0 -12.667 3 -22.5 9 -29.5s13.333 -12.167 22 -15.5s18 -5.33301 28 -6s18.667 -1 26 -1v-76c-18.667 0 -37.334 1.16699 -56.001 3.5s-35.5 7.66602 -50.5 15.999s-27.167 21 -36.5 38s-14 40.5 -14 70.5c0 8.66699 1.66699 19.167 5 31.5
s8.66602 24 15.999 35s16.833 20.5 28.5 28.5s26.167 12 43.5 12c10 0 18.667 -2.16699 26 -6.5s13.666 -9.16602 18.999 -14.499c6 -6 11 -12.667 15 -20c4.66699 7.33301 10.334 14 17.001 20c5.33301 5.33301 12 10.166 20 14.499s17 6.5 27 6.5
c20 0 37 -4.83301 51 -14.5s25.333 -21.667 34 -36s15 -30.333 19 -48s6 -34.5 6 -50.5v-108c0 -24.667 -4 -46.167 -12 -64.5s-18.833 -33.5 -32.5 -45.5s-29.5 -21 -47.5 -27s-37.333 -9 -58 -9h-159z" />
    <glyph glyph-name="uni0E53" unicode="&#xe53;" horiz-adv-x="552" 
d="M376 316c-19.333 0 -34.334 -12.3301 -45.001 -36.9971s-16 -62 -16 -112h-78c0 46 -5.33301 82.333 -16 109s-25.667 40 -45 40c-7.33301 0 -14.833 -1.83301 -22.5 -5.5s-14.667 -10.334 -21 -20.001s-11.666 -22.334 -15.999 -38.001s-6.5 -35.5 -6.5 -59.5
c0 -37.333 7.83301 -67.833 23.5 -91.5s37.834 -35.5 66.501 -35.5c11.333 0 22.666 1.66699 33.999 5c6 2 11.333 4 16 6v-71c-3.33301 -2.66699 -7.66602 -5.33398 -12.999 -8.00098c-4.66699 -2 -10.167 -3.83301 -16.5 -5.5s-13.5 -2.5 -21.5 -2.5
c-20.667 0 -41.5 4.33301 -62.5 13s-40 21.667 -57 39s-30.833 38.5 -41.5 63.5s-16 54.167 -16 87.5c0 62 12.333 110.667 37 146s61 53 109 53c20 0 37 -5.33301 51 -16s25.667 -22.334 35 -35.001c10.667 -14.667 19 -31.334 25 -50.001
c6 18.667 14.333 35.334 25 50.001c8.66699 12.667 20 24.334 34 35.001s31 16 51 16s38.667 -4.5 56 -13.5s32.166 -22 44.499 -39s22.166 -37.833 29.499 -62.5s11 -52.667 11 -84c0 -30 -3 -57 -9 -81s-12.667 -44.333 -20 -61c-8 -19.333 -17.333 -36.333 -28 -51h-84
c10 16 18.667 34 26 54c6.66699 17.333 12.834 37.833 18.501 61.5s8.5 49.5 8.5 77.5c0 38 -6 68 -18 90s-28 33 -48 33z" />
    <glyph glyph-name="uni0E54" unicode="&#xe54;" horiz-adv-x="536" 
d="M190 308c-14 0 -26.1709 -3.32812 -36.5039 -9.99512s-18.666 -15.667 -24.999 -27s-11.166 -24.333 -14.499 -39s-5 -30 -5 -46c0 -32.667 5.83301 -59.167 17.5 -79.5s32.167 -30.5 61.5 -30.5h151c-18.667 10 -35.334 22 -50.001 36c-12.667 12 -24.167 27 -34.5 45
s-15.5 39.333 -15.5 64h90c0 -21.333 3.33301 -40.833 10 -58.5s15.5 -32.834 26.5 -45.501s23.667 -22.667 38 -30s29.5 -11 45.5 -11h50v-76h-327c-22.667 0 -43.167 5 -61.5 15s-34 23.667 -47 41s-23.167 37.166 -30.5 59.499s-11 46.166 -11 71.499
c0 22.667 2.66699 45.667 8 69s13.833 44.333 25.5 63s26.834 34 45.501 46s41.667 18 69 18h160c10.667 0 20.834 1 30.501 3s18.167 5.66699 25.5 11s13.333 13.166 18 23.499s7 23.833 7 40.5v131l88 -1l-1 -151c0 -24.667 -4 -45.334 -12 -62.001
s-18.333 -30.167 -31 -40.5s-27.167 -17.833 -43.5 -22.5s-33.166 -7 -50.499 -7h-171z" />
    <glyph glyph-name="uni0E55" unicode="&#xe55;" horiz-adv-x="537" 
d="M252 401c0 -8.66699 2.83398 -15.832 8.50098 -21.499s12.834 -8.5 21.501 -8.5h3c7.33301 1.33301 13.666 4.66602 18.999 9.99902s8 12 8 20s-3 15 -9 21s-13 9 -21 9c-8.66699 0 -15.834 -3 -21.501 -9s-8.5 -13 -8.5 -21zM193.001 404.002
c0 24.667 8.66797 45.6699 26.001 63.0029s38.333 26 63 26s45.667 -8.66699 63 -26s26 -38.333 26 -63c0 -6.66699 -1 -12.334 -3 -17.001c17.333 7.33301 29 17.5 35 30.5s9 32.833 9 59.5v115h88v-148c0 -24.667 -3.5 -45.5 -10.5 -62.5s-16.5 -31 -28.5 -42
s-26.167 -19 -42.5 -24s-33.5 -7.5 -51.5 -7.5h-174c-14 0 -26.167 -3.33301 -36.5 -10s-19 -15.667 -26 -27s-12.167 -24.333 -15.5 -39s-5 -30 -5 -46c0 -32 5.83301 -58.333 17.5 -79s31.5 -31 59.5 -31h154c-19.333 10 -36.333 22 -51 36
c-12.667 12 -24.167 27 -34.5 45s-15.5 39.333 -15.5 64h90c0 -21.333 3.66699 -40.833 11 -58.5s16.666 -32.834 27.999 -45.501s23.833 -22.667 37.5 -30s26.5 -11 38.5 -11h55v-76h-327c-22.667 0 -43.334 5.5 -62.001 16.5s-34.5 25.167 -47.5 42.5
s-23.167 37.166 -30.5 59.499s-11 44.833 -11 67.5s2.66699 45.667 8 69s13.833 44.5 25.5 63.5s26.834 34.5 45.501 46.5s41 18 67 18h28c-2 4.66699 -3 11.667 -3 21z" />
    <glyph glyph-name="uni0E56" unicode="&#xe56;" horiz-adv-x="606" 
d="M190 208c-12.667 52.667 -24.501 98.3301 -35.501 136.997s-23 70.667 -36 96s-28.333 44 -46 56s-39.5 18 -65.5 18v77h21c35.333 0 64.833 -7.16699 88.5 -21.5s43.5 -33.666 59.5 -57.999s29.333 -52.166 40 -83.499s20.667 -64 30 -98
c8 11.333 18.333 21.666 31 30.999c10.667 8 24.5 15.333 41.5 22s37.833 10 62.5 10c32.667 0 61.667 -5.33301 87 -16s46.666 -25 63.999 -43s30.333 -38.667 39 -62s13 -47.333 13 -72c0 -27.333 -4.5 -53.666 -13.5 -78.999s-22.167 -47.666 -39.5 -66.999
s-38.666 -34.833 -63.999 -46.5s-54 -17.5 -86 -17.5c-25.333 0 -48.166 4.16699 -68.499 12.5s-38.5 19.333 -54.5 33s-29.5 29.167 -40.5 46.5s-19.833 35 -26.5 53h88c9.33301 -22.667 23.666 -40 42.999 -52s39 -18 59 -18c12.667 0 25.834 2.83301 39.501 8.5
s26.167 14.167 37.5 25.5s20.666 25.333 27.999 42s11 36.334 11 59.001c0 17.333 -3.16699 33.166 -9.5 47.499s-14.666 26.5 -24.999 36.5s-22.5 17.833 -36.5 23.5s-29 8.5 -45 8.5s-30.167 -3 -42.5 -9s-23 -14 -32 -24s-16.333 -21.5 -22 -34.5
s-10.167 -26.833 -13.5 -41.5h-81z" />
    <glyph glyph-name="uni0E57" unicode="&#xe57;" horiz-adv-x="721" 
d="M365 307c-19.333 0 -35.166 -9.83496 -47.499 -29.502s-18.5 -49.5 -18.5 -89.5h-67c0 17.333 -1.83301 33.333 -5.5 48s-8.5 27.167 -14.5 37.5s-13 18.5 -21 24.5s-16.333 9 -25 9c-7.33301 0 -14.5 -1.5 -21.5 -4.5s-13.167 -8.5 -18.5 -16.5s-9.5 -19.5 -12.5 -34.5
s-4.5 -34.5 -4.5 -58.5c0 -18.667 2.16699 -35.667 6.5 -51s10.5 -28.666 18.5 -39.999s17.333 -20.166 28 -26.499s22.334 -9.5 35.001 -9.5c5.33301 0 11.166 0.666992 17.499 2s12.166 2.66602 17.499 3.99902c6 2 11.667 4 17 6v-72l-18 -8
c-5.33301 -2 -11.166 -3.66699 -17.499 -5s-12.166 -2 -17.499 -2c-24 0 -46.5 5.16699 -67.5 15.5s-39.5 24.5 -55.5 42.5s-28.5 39.333 -37.5 64s-13.5 51.334 -13.5 80.001c0 30.667 3.5 57.834 10.5 81.501s16.5 43.667 28.5 60s26 28.666 42 36.999
s33.333 12.5 52 12.5c19.333 0 35.833 -5 49.5 -15s25 -21.167 34 -33.5s15.667 -24 20 -35s6.83301 -17.5 7.5 -19.5c0 1.33301 2.16699 7.5 6.5 18.5s10.833 22.667 19.5 35s19.834 23.666 33.501 33.999s30.167 15.5 49.5 15.5c18.667 0 36.167 -4 52.5 -12
s30.5 -20 42.5 -36s21.5 -36 28.5 -60s10.5 -51.667 10.5 -83c0 -28 -1.33301 -50 -4 -66s-7.33398 -32 -14.001 -48c15.333 2 28.5 9.33301 39.5 22s16.5 34 16.5 64v284c0 42.667 13.167 77.167 39.5 103.5s64.166 39.5 113.499 39.5h14v-77
c-17.333 0 -31.333 -1.5 -42 -4.5s-18.834 -7.33301 -24.501 -13s-9.33398 -12.667 -11.001 -21s-2.5 -17.833 -2.5 -28.5v-301c0 -24.667 -4.5 -46.167 -13.5 -64.5s-20.5 -33.666 -34.5 -45.999s-29.167 -21.5 -45.5 -27.5s-31.833 -9 -46.5 -9h-129
c10.667 16 20 34 28 54c7.33301 17.333 14 37.833 20 61.5s9 49.5 9 77.5c0 38 -4.16699 66.5 -12.5 85.5s-23.166 28.5 -44.499 28.5z" />
    <glyph glyph-name="uni0E58" unicode="&#xe58;" horiz-adv-x="538" 
d="M413 165l87.001 0.000976562v-26c0 -21.333 -2.83301 -41.166 -8.5 -59.499s-14.5 -34 -26.5 -47s-27.667 -23.167 -47 -30.5s-42.333 -11 -69 -11c-18.667 0 -34.5 3.16699 -47.5 9.5s-23.833 13.166 -32.5 20.499c-10 8.66699 -18.333 18.667 -25 30
c-4.66699 -11.333 -10.667 -21.333 -18 -30c-6.66699 -7.33301 -14.834 -14.166 -24.501 -20.499s-22.167 -9.5 -37.5 -9.5c-16.667 0 -33.334 4.66699 -50.001 14s-31.834 22.666 -45.501 39.999s-24.834 38.5 -33.501 63.5s-13 53.167 -13 84.5c0 24 3.66699 47.333 11 70
s18.333 43 33 61s32.667 32.333 54 43s46 16 74 16h138c10.667 0 20.834 1 30.501 3s18.167 5.66699 25.5 11s13.333 13.166 18 23.499s7 23.833 7 40.5v131h88v-140c0 -28.667 -4.16699 -52.334 -12.5 -71.001s-19.333 -33.5 -33 -44.5s-29 -18.667 -46 -23
s-34.167 -6.5 -51.5 -6.5h-141c-18 0 -33.667 -3.16699 -47 -9.5s-24.333 -14.833 -33 -25.5s-15.167 -23.167 -19.5 -37.5s-6.5 -29.166 -6.5 -44.499c0 -37.333 6 -67.166 18 -89.499s27.333 -33.5 46 -33.5c11.333 0 21.5 4.83301 30.5 14.5s16.167 20.167 21.5 31.5
c6.66699 13.333 12.334 29 17.001 47c8 -18 17.333 -33.667 28 -47c9.33301 -11.333 20.333 -21.833 33 -31.5s27.334 -14.5 44.001 -14.5c8 0 15.833 1 23.5 3s14.5 5.66699 20.5 11s10.833 12.666 14.5 21.999s5.5 21.333 5.5 36v26z" />
    <glyph glyph-name="uni0E59" unicode="&#xe59;" horiz-adv-x="646" 
d="M521 592l88.002 -0.00292969v-122c0 -20.667 -1.33301 -42.334 -4 -65.001s-8 -43.5 -16 -62.5s-19.5 -34.667 -34.5 -47s-34.833 -18.5 -59.5 -18.5c-19.333 0 -36.166 3.66699 -50.499 11s-27 15.5 -38 24.5l-29.5 24c-8.66699 7 -17.334 10.167 -26.001 9.5
c-9.33301 -0.666992 -17.666 -4.5 -24.999 -11.5s-11 -16.5 -11 -28.5c0 -4.66699 0.333008 -8 1 -10l16 -55c5.33301 -17.333 13.333 -45.166 24 -83.499l44 -157.5h-84l-74 259c-4 14 -12 27.5 -24 40.5s-26 19.5 -42 19.5c-6 0 -13 -2 -21 -6s-15.333 -11 -22 -21
s-12.334 -23 -17.001 -39s-7 -36 -7 -60c0 -36.667 7.16699 -67 21.5 -91s34.166 -36 59.499 -36c11.333 0 22.333 2.33301 33 7l16 8v-74c-3.33301 -2.66699 -9 -6 -17 -10s-20 -6 -36 -6c-21.333 0 -41.833 5.16699 -61.5 15.5s-37.167 24.5 -52.5 42.5
s-27.5 39.333 -36.5 64s-13.5 51.334 -13.5 80.001c0 30.667 4.5 58.334 13.5 83.001s20.5 45.5 34.5 62.5s29.167 30.167 45.5 39.5s31.833 14 46.5 14c25.333 0 46 -5.83301 62 -17.5s29.667 -24.5 41 -38.5c4 26 13.667 47 29 63s34.666 24 57.999 24
c16 0 30.667 -3.66699 44 -11s25.5 -15.333 36.5 -24l30.5 -24c9.33301 -7.33301 18.333 -11 27 -11c12.667 0 21 10.833 25 32.5s6 49.834 6 84.501v122z" />
    <glyph glyph-name="uni0E5A" unicode="&#xe5a;" horiz-adv-x="558" 
d="M108 452c3.33301 -14 6.99902 -26.502 10.999 -37.502s9 -20.333 15 -28s13.5 -13.5 22.5 -17.5s20.167 -6 33.5 -6c24.667 0 46.834 7.5 66.501 22.5s33.167 37.167 40.5 66.5h84v-294c0 -24 -1.5 -45.667 -4.5 -65s-9 -35.833 -18 -49.5s-21.833 -24.334 -38.5 -32.001
s-38.334 -11.5 -65.001 -11.5v77c7.33301 0 13.5 0.166992 18.5 0.5s9 3.33301 12 9s5.16699 14.834 6.5 27.501s2 31.334 2 56.001v165c-6.66699 -9.33301 -15.334 -17.666 -26.001 -24.999c-9.33301 -6 -21.166 -11.5 -35.499 -16.5s-31.166 -7.5 -50.499 -7.5
c-24 0 -45.333 4.5 -64 13.5s-34.5 21.167 -47.5 36.5s-23.5 33 -31.5 53s-13.667 41 -17 63h86zM433.999 -0.00195312v453l87 -1v-452h-87z" />
    <glyph glyph-name="uni0E5B" unicode="&#xe5b;" horiz-adv-x="742" 
d="M237 -10c-30 0 -57.1611 5.49707 -81.4941 16.4971s-45.333 25.667 -63 44s-31.334 39.166 -41.001 62.499s-14.5 47.333 -14.5 72c0 26.667 4.16699 52.5 12.5 77.5s20.666 47 36.999 66s36.833 34.167 61.5 45.5s53 17 85 17c20 0 38 -2.33301 54 -7s30 -10.667 42 -18
s22.333 -15.666 31 -24.999s16 -19 22 -29c14 -23.333 23.333 -49.666 28 -78.999h-85c-4 15.333 -9.66699 29 -17 41c-6.66699 10.667 -16 20.334 -28 29.001s-27.667 13 -47 13c-14.667 0 -28.5 -3.16699 -41.5 -9.5s-24.5 -15.166 -34.5 -26.499s-17.833 -25 -23.5 -41
s-8.5 -34 -8.5 -54c0 -18.667 3.16699 -35.334 9.5 -50.001s14.666 -27.167 24.999 -37.5s22.166 -18.166 35.499 -23.499s27.333 -8 42 -8s28 2.83301 40 8.5s22.667 12.167 32 19.5c10.667 8 20 17.333 28 28l52 -50l40 51l46 -50l43 51
c7.33301 -11.333 14.666 -21.333 21.999 -30c6.66699 -7.33301 14 -14 22 -20s16.667 -9 26 -9c12.667 0 21.334 3.16699 26.001 9.5s7 12.5 7 18.5c0 8 -1.66699 15.5 -5 22.5s-7 13.167 -11 18.5c-4.66699 6 -9.66699 11.667 -15 17h85c5.33301 -4 10.333 -9 15 -15
c3.33301 -5.33301 6.66602 -12 9.99902 -20s5 -17.333 5 -28c0 -8 -1.66699 -17.5 -5 -28.5s-8.83301 -21.5 -16.5 -31.5s-18.167 -18.667 -31.5 -26s-30 -11 -50 -11c-12.667 0 -24 3.16699 -34 9.5s-18.667 13.166 -26 20.499c-8 8.66699 -15.333 18.667 -22 30l-41 -50
l-46 50l-39 -50l-52 50c-8 -12 -17.333 -22.333 -28 -31c-9.33301 -7.33301 -20.333 -14.166 -33 -20.499s-27.334 -9.5 -44.001 -9.5z" />
    <glyph glyph-name="endash" unicode="&#x2013;" horiz-adv-x="401" 
d="M37 190v72h327v-72h-327z" />
    <glyph glyph-name="emdash" unicode="&#x2014;" horiz-adv-x="591" 
d="M37 190v72h517v-72h-517z" />
    <glyph glyph-name="quoteleft" unicode="&#x2018;" horiz-adv-x="161" 
d="M124 360h-87v71c0 17.333 4 33.333 12 48s17 27.667 27 39c12 12 25.333 23.333 40 34h88c-14.667 -11.333 -28 -23.333 -40 -36c-10 -11.333 -19.167 -24.333 -27.5 -39s-12.5 -30 -12.5 -46v-71z" />
    <glyph glyph-name="quoteright" unicode="&#x2019;" horiz-adv-x="162" 
d="M37 552l88.001 -0.000976562v-71c0 -17.333 -4.16699 -33.166 -12.5 -47.499s-17.5 -27.166 -27.5 -38.499c-12 -12.667 -25.333 -24.334 -40 -35.001h-86c14 11.333 27 23.333 39 36c9.33301 11.333 18.166 24.333 26.499 39s12.5 30 12.5 46v71z" />
    <glyph glyph-name="quotedblleft" unicode="&#x201c;" horiz-adv-x="291" 
d="M254 360h-85.001v71c0 17.333 4.33301 33.333 13 48s18.334 27.667 29.001 39c12 12 26.333 23.333 43 34h80c-14.667 -11.333 -28 -23.333 -40 -36c-10 -11.333 -19.167 -24.333 -27.5 -39s-12.5 -30 -12.5 -46v-71zM121.999 360h-85v71c0 17.333 4 33.333 12 48
s17 27.667 27 39c12 12 25.333 23.333 40 34h80c-14 -11.333 -26.333 -23.333 -37 -36c-9.33301 -11.333 -17.833 -24.333 -25.5 -39s-11.5 -30 -11.5 -46v-71z" />
    <glyph glyph-name="quotedblright" unicode="&#x201d;" horiz-adv-x="292" 
d="M37 552l85.001 -0.000976562v-71c0 -17.333 -4.5 -33.166 -13.5 -47.499s-18.833 -27.166 -29.5 -38.499c-12 -12.667 -26 -24.334 -42 -35.001h-78c14 11.333 27 23.333 39 36c9.33301 11.333 18.166 24.333 26.499 39s12.5 30 12.5 46v71zM170.001 551.999
l85.001 -0.000976562v-71c0 -17.333 -4.16699 -33.166 -12.5 -47.499s-17.5 -27.166 -27.5 -38.499c-12 -12.667 -25.333 -24.334 -40 -35.001h-80c13.333 11.333 25.666 23.333 36.999 36c9.33301 11.333 18 24.333 26 39s12 30 12 46v71z" />
    <glyph glyph-name="bullet" unicode="&#x2022;" horiz-adv-x="278" 
d="M140 330c14 0 27.167 -2.66699 39.5 -8s23 -12.666 32 -21.999s16.167 -20.166 21.5 -32.499s8 -25.833 8 -40.5c0 -14 -2.66699 -27 -8 -39s-12.5 -22.667 -21.5 -32s-19.667 -16.666 -32 -21.999s-25.5 -8 -39.5 -8s-27.333 2.66699 -40 8s-23.667 12.666 -33 21.999
s-16.666 20 -21.999 32s-8 25 -8 39c0 14.667 2.66699 28.167 8 40.5s12.666 23.166 21.999 32.499s20.333 16.666 33 21.999s26 8 40 8z" />
    <glyph glyph-name="ellipsis" unicode="&#x2026;" horiz-adv-x="581" 
d="M457 0v82h87v-82h-87zM247 0v82h87v-82h-87zM37 0v82h87v-82h-87z" />
    <glyph glyph-name="Euro" unicode="&#x20ac;" horiz-adv-x="535" 
d="M37 281l-0.000976562 63.001h62c20.667 61.333 52.667 106.166 96 134.499s94.333 42.5 153 42.5c34 0 63.5 -2.33301 88.5 -7s45.5 -10.667 61.5 -18l-30 -75c-19.333 9.33301 -39.166 15.666 -59.499 18.999s-41.166 5 -62.499 5c-36 0 -67.333 -8.83301 -94 -26.5
s-46 -42.5 -58 -74.5h190v-63h-208c-0.666992 -5.33301 -1.16699 -10.333 -1.5 -15s-0.5 -9.66699 -0.5 -15v-13c0 -4 0.333008 -8 1 -12h189v-63h-172c8 -17.333 17.833 -32.166 29.5 -44.499s24.334 -22.333 38.001 -30s28 -13.334 43 -17.001s29.5 -5.5 43.5 -5.5
c25.333 0 47 3.33301 65 10s36.667 15 56 25l30 -74c-19.333 -11.333 -42 -20.166 -68 -26.499s-56.667 -9.5 -92 -9.5c-28.667 0 -55.834 3.83301 -81.501 11.5s-48.834 18.834 -69.501 33.501s-38.5 32.667 -53.5 54s-25.833 45.666 -32.5 72.999h-63v63h50v25v15
c0 4.66699 0.333008 9.66699 1 15h-51z" />
    <glyph glyph-name="trademark" unicode="&#x2122;" horiz-adv-x="392" 
d="M355 503v-175h-22v135l-63 -135h-10l-58 135v-135h-25v175h31l57 -134l62 134h28zM159 503v-22h-47v-153h-26v153h-49v22h122z" />
    <glyph glyph-name=".null" 
 />
    <glyph glyph-name="nonmarkingreturn" horiz-adv-x="322" 
 />
    <glyph glyph-name="uni0E10.alt" horiz-adv-x="442" 
d="M155 0l-39.002 153.999c-2 5.33301 -4 8.83301 -6 10.5s-5.66699 2.5 -11 2.5h-24v77h46c15.333 0 30 -3.16699 44 -9.5s24.667 -22.166 32 -47.499l30 -110c14.667 0 28.334 4.33301 41.001 13s23.834 20.167 33.501 34.5s17.334 31.166 23.001 50.499
s8.5 39.666 8.5 60.999c0 28.667 -4.66699 52.5 -14 71.5s-20.833 34.333 -34.5 46s-28.334 19.834 -44.001 24.501s-29.834 7 -42.501 7c-27.333 0 -50.333 -4.83301 -69 -14.5s-34 -20.167 -46 -31.5c-14 -13.333 -25.333 -28.666 -34 -45.999l-29 74
c8 17.333 19.667 33 35 47c13.333 12 31.333 23 54 33s52.334 15 89.001 15c14.667 0 29.334 -1.5 44.001 -4.5s28 -6.83301 40 -11.5c13.333 4.66699 25.166 12.167 35.499 22.5s15.5 24.5 15.5 42.5h87c0 -27.333 -8 -50.333 -24 -69s-33.333 -30.667 -52 -36
c25.333 -21.333 44.333 -47.5 57 -78.5s19 -61.5 19 -91.5c0 -38.667 -5.66699 -72.667 -17 -102s-26.833 -54 -46.5 -74s-42.667 -35 -69 -45s-54.5 -15 -84.5 -15h-48z" />
    <glyph glyph-name="uni0E0D.alt" horiz-adv-x="716" 
d="M332 291c0 17.333 -3.33594 32.0029 -10.0029 44.0029s-15.5 21.667 -26.5 29s-23.667 12.666 -38 15.999s-28.833 5 -43.5 5c-19.333 0 -35.166 -2.33301 -47.499 -7s-22.166 -9.66699 -29.499 -15c-8.66699 -6.66699 -15.667 -14 -21 -22l61 -50
c-6 -4.66699 -11 -10.667 -15 -18c-3.33301 -6.66699 -6.5 -14.834 -9.5 -24.501s-4.5 -22.167 -4.5 -37.5v-114c0 -5.33301 0.333008 -9.83301 1 -13.5s3.66699 -5.83398 9 -6.50098h32v-77h-50c-28 -0.666992 -48 6.33301 -60 21s-18 34.667 -18 60v130
c0 12.667 0.833008 23.834 2.5 33.501s3.83398 18.167 6.50098 25.5c2.66699 8 5.66699 15 9 21c-11.333 9.33301 -21 17.666 -29 24.999l-20 16.5c-6 5 -9 7.83301 -9 8.5c12 22.667 27 42.667 45 60c15.333 15.333 34.833 29.333 58.5 42s52.167 19 85.5 19
c26 0 51.5 -3.16699 76.5 -9.5s47.333 -15.833 67 -28.5s35.5 -28.5 47.5 -47.5s18 -40.833 18 -65.5v-157c0 -11.333 1 -22.333 3 -33s5.33301 -20 10 -28s11 -14.5 19 -19.5s18 -7.5 30 -7.5h42c12 0 22.333 2.5 31 7.5s15.834 11.5 21.501 19.5s9.66699 17.333 12 28
s3.5 21.667 3.5 33v298h87v-294c0 -19.333 -2.5 -38.833 -7.5 -58.5s-13.167 -37.5 -24.5 -53.5s-26.166 -29.167 -44.499 -39.5s-40.833 -15.5 -67.5 -15.5h-80c-22.667 0 -41.834 4.5 -57.501 13.5s-28.334 21.333 -38.001 37s-16.667 33.5 -21 53.5s-6.5 41 -6.5 63v133z
" />
    <glyph glyph-name="uni0E47.sm" 
d="M-237 700c15.333 0 28.665 2.33301 39.998 7s21 9.66699 29 15c9.33301 6.66699 17.666 14 24.999 22v-75c-7.33301 -4 -15.666 -7.33301 -24.999 -10c-8 -2.66699 -17.667 -5 -29 -7s-24.666 -3 -39.999 -3h-50c-20 0 -33.333 -4.33301 -40 -13s-10 -17.667 -10 -27
c0 -6 1.5 -12.5 4.5 -19.5s8.16699 -10.5 15.5 -10.5s13.166 1.83301 17.499 5.5s7.5 7.83398 9.5 12.501c2.66699 5.33301 4 11.666 4 18.999h19c1.33301 -7.33301 3.33301 -13.666 6 -18.999c2 -4.66699 4.83301 -8.83398 8.5 -12.501s8.83398 -5.5 15.501 -5.5
c4.66699 0 9 1.33301 13 4s7.16699 6 9.5 10s4.16602 8.16699 5.49902 12.5s2 7.83301 2 10.5h63c0 -25.333 -7.66699 -46.5 -23 -63.5s-35.333 -25.5 -60 -25.5c-7.33301 0 -14 1.66699 -20 5s-11.333 7 -16 11c-5.33301 4.66699 -10 10 -14 16
c-2.66699 -6 -6 -11.333 -10 -16c-4 -4 -9.16699 -7.5 -15.5 -10.5s-14.5 -4.5 -24.5 -4.5c-18 0 -34.833 6.5 -50.5 19.5s-23.5 33.5 -23.5 61.5c0 17.333 2.83301 31.833 8.5 43.5s13.334 21 23.001 28s20.834 12 33.501 15s25.667 4.5 39 4.5h60z" />
    <glyph glyph-name="uni0E49.sm" 
d="M40 779l-31 -74h-117c-15.333 0 -27.5 3.66699 -36.5 11s-13.5 16 -13.5 26c0 8.66699 -2 14.167 -6 16.5s-8 3.5 -12 3.5h-37v75h90c10 0 19.167 -3.83301 27.5 -11.5s12.5 -16.5 12.5 -26.5c0 -5.33301 2 -10 6 -14s8.66699 -6 14 -6h103z" />
    <glyph glyph-name="uni0E4A.sm" 
d="M-134 791c2 5.33301 5.00098 10.3301 9.00098 14.9971c3.33301 4 7.66602 7.66699 12.999 11s11.666 5 18.999 5c16.667 0 30.5 -4.5 41.5 -13.5s18.833 -20.5 23.5 -34.5c1.33301 -4.66699 2.66602 -7.5 3.99902 -8.5s3.66602 -1.5 6.99902 -1.5h57l-31 -74h-50
c-18.667 0 -31.167 4.16699 -37.5 12.5s-9.5 17.5 -9.5 27.5c0 7.33301 -1.5 16 -4.5 26s-8.5 15 -16.5 15c-5.33301 0 -9.16602 -3.16699 -11.499 -9.5s-3.5 -13.166 -3.5 -20.499h-20c0 6.66699 -1.16699 13.334 -3.5 20.001s-6.16602 10 -11.499 10
s-10 -3.16699 -14 -9.5s-6 -13.166 -6 -20.499s1.5 -14.166 4.5 -20.499s6.16699 -11.833 9.5 -16.5c4 -5.33301 8.66699 -10 14 -14h-74c-5.33301 4 -10 8.66699 -14 14c-3.33301 4.66699 -6.5 10.167 -9.5 16.5s-4.5 13.166 -4.5 20.499c0 13.333 2.66699 25 8 35
s12 18.5 20 25.5s16.833 12.167 26.5 15.5s18.5 5 26.5 5c6.66699 0 12.334 -1.66699 17.001 -5s8.66699 -7 12 -11c3.33301 -4.66699 6.33301 -9.66699 9 -15z" />
    <glyph glyph-name="uni0E24_uni0E45" horiz-adv-x="765" 
d="M421 -138c0 -9.33301 -2.67676 -18.1719 -8.00977 -26.5049s-11 -15.833 -17 -22.5c-7.33301 -7.33301 -15.666 -14.666 -24.999 -21.999h-38v500c0 18.667 -3.5 34.167 -10.5 46.5s-16.167 22 -27.5 29s-24.333 11.833 -39 14.5s-29.334 4 -44.001 4
c-17.333 0 -32.166 -2.33301 -44.499 -7s-22.166 -9.66699 -29.499 -15c-9.33301 -6.66699 -16.666 -14 -21.999 -22l60 -50l-4.5 -5c-3 -3.33301 -6.16699 -8.33301 -9.5 -15s-6.33301 -15 -9 -25s-4 -21.667 -4 -35v-113c0 -7.33301 1.33301 -12.5 4 -15.5
s6 -4.83301 10 -5.5s8.5 -0.833984 13.5 -0.500977s9.83301 0.5 14.5 0.5v-77h-54c-23.333 0 -41.5 6.5 -54.5 19.5s-19.5 33.5 -19.5 61.5v130c0 12.667 0.833008 23.834 2.5 33.501s3.83398 18.167 6.50098 25.5c2.66699 8 5.66699 15 9 21l-30 25l-20 16.5
c-6 5 -9 7.83301 -9 8.5c12.667 22.667 28 42.667 46 60c15.333 15.333 35 29.333 59 42s53 19 87 19c36 0 70.833 -6.5 104.5 -19.5s59.834 -32.167 78.501 -57.5c4.66699 7.33301 10.834 15.5 18.501 24.5s17.5 17.333 29.5 25s26.333 14.167 43 19.5s36 8 58 8
c22.667 0 44.834 -3.66699 66.501 -11s41 -18.166 58 -32.499s30.833 -32.166 41.5 -53.499s16 -46 16 -74v-429c0 -9.33301 -2.66699 -18.166 -8 -26.499s-11 -15.833 -17 -22.5c-7.33301 -7.33301 -15.666 -14.666 -24.999 -21.999h-37v490c0 20 -3.33301 36.667 -10 50
s-15.167 24 -25.5 32s-21.666 13.667 -33.999 17s-23.833 5 -34.5 5c-27.333 0 -48.666 -4.16699 -63.999 -12.5s-26.833 -17.833 -34.5 -28.5s-12.5 -20.5 -14.5 -29.5s-3 -13.833 -3 -14.5v-438z" />
    <glyph glyph-name="uni0E26_uni0E45" horiz-adv-x="765" 
d="M151 81c0 -25.333 -6.33887 -45.1748 -19.0059 -59.5078s-30.334 -21.5 -53.001 -21.5h-56v77h30c3.33301 0 5.66602 1.5 6.99902 4.5s2.33301 6.5 3 10.5s0.833984 8.33301 0.500977 13s-0.5 9 -0.5 13l-1 93c-0.666992 12.667 0 23.834 2 33.501s4.33301 18.167 7 25.5
c2.66699 8 6 15 10 21l-30 25l-20 16.5c-6 5 -9 7.83301 -9 8.5c11.333 22.667 26 42.667 44 60c15.333 15.333 35.333 29.333 60 42s55 19 91 19c16 0 32.5 -1.66699 49.5 -5s33.5 -8.16602 49.5 -14.499s31 -14.5 45 -24.5s25.667 -21.333 35 -34
c4.66699 7.33301 10.834 15.5 18.501 24.5s17.5 17.5 29.5 25.5s26.5 14.667 43.5 20s36.5 8 58.5 8c22.667 0 44.834 -3.66699 66.501 -11s41 -18.166 58 -32.499s30.833 -32.166 41.5 -53.499s16 -46 16 -74v-429c0 -9.33301 -2.66699 -18.166 -8 -26.499
s-11 -15.833 -17 -22.5c-7.33301 -7.33301 -15.666 -14.666 -24.999 -21.999h-37v490c0 20 -3.33301 36.667 -10 50s-15.167 24 -25.5 32s-21.666 13.667 -33.999 17s-23.833 5 -34.5 5c-32 0 -56 -5.66699 -72 -17s-27.333 -23.833 -34 -37.5s-10 -26.167 -10 -37.5v-18
v-413c0 -9.33301 -2.66699 -18.166 -8 -26.499s-11 -15.833 -17 -22.5c-7.33301 -7.33301 -15.666 -14.666 -24.999 -21.999h-38v500c0 16 -3.16699 30 -9.5 42s-14.666 21.833 -24.999 29.5s-22.5 13.334 -36.5 17.001s-28.333 5.5 -43 5.5
c-19.333 0 -35.5 -2.33301 -48.5 -7s-23.5 -9.66699 -31.5 -15c-9.33301 -6.66699 -17 -14 -23 -22l61 -50c-5.33301 -4.66699 -9.66602 -10.667 -12.999 -18c-3.33301 -6.66699 -6.33301 -14.834 -9 -24.501s-4 -22.167 -4 -37.5v-130z" />
  </font>
</defs>
</svg>
